<svg xmlns="http://www.w3.org/2000/svg">
<defs>
<font id="Huvittelukeskus" horiz-adv-x="1024" >
  <font-face 
    font-family="Huvittelukeskus"
    font-weight="400"
    font-stretch="normal"
    units-per-em="1000"
    panose-1="2 0 5 3 0 0 0 0 0 0"
    ascent="800"
    descent="-200"
    x-height="509"
    cap-height="767"
    bbox="-40.9091 -213 1584 943.76"
    underline-thickness="50"
    underline-position="-300"
    unicode-range="U+0020-FFE5"
  />
<missing-glyph horiz-adv-x="856" 
d="M120 286l7 11l9 -4q9 -4 11 -6q4 -4 -12 -22t-28 -23q-38 -15 -69 10q-9 8 -14 16.5t-2 10.5q2 2 10 6q6 2 8.5 1t8.5 -8q14 -17 33 -17q9 0 20.5 8t17.5 17zM53 353q25 11 53 2q17 -4 19 -8t-5 -18q-8 -17 -9 -18t-9 2q-5 2 -6.5 4t0.5 8l1 9h-14q-28 0 -44 -18l-5 -6
l-8 9q-9 8 -9 10t12.5 11t23.5 13zM131 374q7 3 8.5 2t4.5 -8q4 -10 0 -13q-9 -7 -14 7q-3 7 -3 8.5t4 3.5zM490 380q9 2 12.5 1t4.5 -7q4 -14 14 -17t20 8l9 9l9 -5q10 -6 10 -8t-9.5 -11.5t-14.5 -12.5q-17 -9 -36 -1q-16 6 -24 28q-4 12 -4 12.5t9 3.5zM110 382q6 3 7 3
t4.5 -9.5t3.5 -11t-6 -4.5q-4 -2 -6 -1t-4 7q-4 9 -4 11.5t5 4.5zM239 405q6 2 8 1t4 -5q3 -7 5 -18q1 -7 3 -9.5t10 -5.5q15 -5 26 -21.5t11 -33.5q0 -7 -3 -19t-5 -13q-1 -1 -16.5 2.5t-16.5 5.5q-1 0 0.5 7.5t8.5 6.5q4 -1 5 1t1 10q0 13 -6.5 21.5t-8.5 8.5t-5 -19
q-5 -27 -19 -43.5t-33 -16.5q-21 0 -32 19q-5 8 -4.5 22.5t5.5 24.5l5 11l-5 19q-5 19 -3.5 21.5t12.5 2.5h11l2 -12q1 -11 3 -11t16 6l15 5l-4 13q-3 13 -1 15t11 4zM236 338q0 11 -3 11t-11.5 -5t-8.5 -7t8 -12l8 -10l-8 -8l-8 -8l-8 8q-7 8 -8.5 8t-1.5 -8q0 -14 9 -16.5
t19 7.5q13 16 13 40zM344 428q9 3 11 3t5 -10q2 -8 3.5 -9t9 0.5t9 0t3.5 -8.5q3 -8 1 -10.5t-13 -4.5q-7 -1 -9 -3t-3 -9q-4 -24 -15 -41l-7 -10l-9 6q-9 5 -9 7t8 18q8 17 7.5 20t-11.5 2q-9 -2 -10.5 0t-2.5 16q0 4 13 7t12.5 5.5t-1.5 9.5q-2 6 -0.5 7.5t8.5 3.5z
M400 431q7 8 8.5 8t22.5 -19l20 -19l-7 -8q-8 -8 -13.5 -6.5t-7 -1.5t0.5 -12q3 -10 14 -16t18 -12l7 -6l-7 -9q-5 -7 -9 -7t-10 6q-7 9 -13 -6t-21.5 -19.5t-26.5 5.5q-8 7 -10 14q-2 13 6 25t21 15q7 2 7.5 3.5t-3.5 10.5t-3 11.5t10 7.5l11 5l-11 11l-12 12zM404 338

<glyph glyph-name=".notdef" horiz-adv-x="856" 
d="M120 286l7 11l9 -4q9 -4 11 -6q4 -4 -12 -22t-28 -23q-38 -15 -69 10q-9 8 -14 16.5t-2 10.5q2 2 10 6q6 2 8.5 1t8.5 -8q14 -17 33 -17q9 0 20.5 8t17.5 17zM53 353q25 11 53 2q17 -4 19 -8t-5 -18q-8 -17 -9 -18t-9 2q-5 2 -6.5 4t0.5 8l1 9h-14q-28 0 -44 -18l-5 -6
l-8 9q-9 8 -9 10t12.5 11t23.5 13zM131 374q7 3 8.5 2t4.5 -8q4 -10 0 -13q-9 -7 -14 7q-3 7 -3 8.5t4 3.5zM490 380q9 2 12.5 1t4.5 -7q4 -14 14 -17t20 8l9 9l9 -5q10 -6 10 -8t-9.5 -11.5t-14.5 -12.5q-17 -9 -36 -1q-16 6 -24 28q-4 12 -4 12.5t9 3.5zM110 382q6 3 7 3
t4.5 -9.5t3.5 -11t-6 -4.5q-4 -2 -6 -1t-4 7q-4 9 -4 11.5t5 4.5zM239 405q6 2 8 1t4 -5q3 -7 5 -18q1 -7 3 -9.5t10 -5.5q15 -5 26 -21.5t11 -33.5q0 -7 -3 -19t-5 -13q-1 -1 -16.5 2.5t-16.5 5.5q-1 0 0.5 7.5t8.5 6.5q4 -1 5 1t1 10q0 13 -6.5 21.5t-8.5 8.5t-5 -19
q-5 -27 -19 -43.5t-33 -16.5q-21 0 -32 19q-5 8 -4.5 22.5t5.5 24.5l5 11l-5 19q-5 19 -3.5 21.5t12.5 2.5h11l2 -12q1 -11 3 -11t16 6l15 5l-4 13q-3 13 -1 15t11 4zM236 338q0 11 -3 11t-11.5 -5t-8.5 -7t8 -12l8 -10l-8 -8l-8 -8l-8 8q-7 8 -8.5 8t-1.5 -8q0 -14 9 -16.5
t19 7.5q13 16 13 40zM344 428q9 3 11 3t5 -10q2 -8 3.5 -9t9 0.5t9 0t3.5 -8.5q3 -8 1 -10.5t-13 -4.5q-7 -1 -9 -3t-3 -9q-4 -24 -15 -41l-7 -10l-9 6q-9 5 -9 7t8 18q8 17 7.5 20t-11.5 2q-9 -2 -10.5 0t-2.5 16q0 4 13 7t12.5 5.5t-1.5 9.5q-2 6 -0.5 7.5t8.5 3.5z
M400 431q7 8 8.5 8t22.5 -19l20 -19l-7 -8q-8 -8 -13.5 -6.5t-7 -1.5t0.5 -12q3 -10 14 -16t18 -12l7 -6l-7 -9q-5 -7 -9 -7t-10 6q-7 9 -13 -6t-21.5 -19.5t-26.5 5.5q-8 7 -10 14q-2 13 6 25t21 15q7 2 7.5 3.5t-3.5 10.5t-3 11.5t10 7.5l11 5l-11 11l-12 12zM404 338
q0 2 -2 3t-4 0t-4 -3q-3 -3 -3 -7.5t4 -4.5q2 0 5.5 4.5t3.5 7.5zM782 434q18 17 34 0q14 -14 4 -31t-29 -11q-7 3 -12 10t-5 16t8 16zM805 423q-4 5 -9.5 2.5t-5.5 -8.5t4 -9t9 0q4 2 5 7t-3 8zM515 465q9 5 11 4.5t7 -8.5t9.5 -8.5t24.5 4.5l19 5l3 -12q3 -11 2.5 -12
t-16.5 -4q-20 -4 -21.5 -6t4.5 -15q8 -15 8 -17t-15 -9l-16 -7l-2 8q-3 7 1 9.5t0 11.5q-6 11 -9.5 12t-21.5 -3q-29 -6 -33 -6.5t-5 6.5q-2 7 -3 11q-1 3 4 4.5t20 5.5q26 6 26 9.5t-3 4.5q-6 4 6 12zM610 471q14 2 17.5 0t6.5 -16q12 -48 37 -56q5 -1 7 5.5t7.5 5
t8.5 -1.5q1 0 1 -1v-3t-0.5 -5.5t-0.5 -8.5q-2 -14 -3.5 -16.5t-6.5 -1.5q-55 7 -72 70q-6 20 -6 24t4 5zM693 479l2 15l9 -2q41 -9 51 -57q2 -6 0.5 -7.5t-10.5 -3.5q-11 -3 -12 -3t-3 10q-2 9 -8 20t-10.5 12.5t-5.5 -3.5q-2 -7 -13 -4q-2 1 -3.5 2t-0.5 3q1 3 4 18z" />
    <glyph glyph-name=".null" horiz-adv-x="0" 
 />
    <glyph glyph-name="nonmarkingreturn" horiz-adv-x="333" 
 />
    <glyph glyph-name="space" unicode=" " horiz-adv-x="460" 
 />
    <glyph glyph-name="exclam" unicode="!" horiz-adv-x="157" 
d="M15 63q0 26 17.5 44.5t42.5 18.5t42.5 -18.5t17.5 -44.5t-17.5 -44.5t-42.5 -18.5t-42.5 18.5t-17.5 44.5zM39 735h69v-555h-69v555z" />
    <glyph glyph-name="quotedbl" unicode="&#x22;" horiz-adv-x="202" 
d="M126 768h54v-144h-54v144zM21 768h54v-144h-54v144z" />
    <glyph glyph-name="numbersign" unicode="#" horiz-adv-x="520" 
d="M138 699h81l-17 -150h135l17 150h81l-17 -150h79v-75h-88l-17 -150h105v-75h-114l-29 -249h-81l29 249h-135l-29 -249h-81l29 249h-69v75h78l17 150h-95v75h104zM328 474h-135l-17 -150h135z" />
    <glyph glyph-name="dollar" unicode="$" horiz-adv-x="535" 
d="M419 565l-23 -2q-2 26 -30.5 51t-68.5 35v-215q91 -5 152 -58.5t61 -144.5q0 -90 -61.5 -156.5t-151.5 -78.5v-57h-72v58q-58 9 -105 41.5t-74.5 83t-27.5 109.5h45h45q0 -50 33 -90t84 -52v258q-45 6 -78.5 25.5t-52 47t-27 57.5t-7.5 61q2 88 49 140.5t116 62.5v44h72
v-44q73 -12 128 -57t61 -113l-45 -4zM225 650q-73 -17 -75 -114q-1 -40 14.5 -65t60.5 -33v212zM297 87q54 11 88.5 51.5t34.5 92.5q0 51 -31.5 80t-91.5 33v-257z" />
    <glyph glyph-name="percent" unicode="%" horiz-adv-x="754" 
d="M498 150q0 -33 21.5 -55.5t50.5 -22.5t50.5 22.5t21.5 55.5t-21.5 55.5t-50.5 22.5t-50.5 -22.5t-21.5 -55.5zM408 150q0 69 47 118.5t115 49.5t115 -49.5t47 -118.5t-47 -118.5t-115 -49.5t-115 49.5t-47 118.5zM102 546q0 -33 21.5 -55.5t50.5 -22.5t50.5 22.5
t21.5 55.5t-21.5 55.5t-50.5 22.5t-50.5 -22.5t-21.5 -55.5zM12 546q0 69 47 118.5t115 49.5t115 -49.5t47 -118.5t-47 -118.5t-115 -49.5t-115 49.5t-47 118.5zM561 705l-270 -732h-105l270 732h105z" />
    <glyph glyph-name="ampersand" unicode="&#x26;" horiz-adv-x="550" 
d="M305 628q-34 44 -89 44q-47 0 -80.5 -34t-33.5 -83t33.5 -83t80.5 -34h116l1 50h90l-1 -50h111v-90h-112l-1 -117q-1 -48 33 -82.5t81 -34.5v-90q-48 0 -89 20.5t-70 56.5q-29 -36 -70 -56.5t-89 -20.5q-85 0 -144.5 61t-59.5 146q0 48 20.5 90.5t56.5 71.5
q-36 29 -56.5 71.5t-20.5 90.5q0 85 59.5 146t144.5 61q82 0 142 -58zM216 348q-47 0 -80.5 -34t-33.5 -83t33.5 -83t80.5 -34t80 34t34 83l1 117h-115z" />
    <glyph glyph-name="quotesingle" unicode="'" horiz-adv-x="82" 
d="M13 768h54v-144h-54v144z" />
    <glyph glyph-name="parenleft" unicode="(" horiz-adv-x="337" 
d="M315 850v-34q-53 0 -104.5 -60t-84.5 -162t-33 -213q0 -168 69.5 -292.5t152.5 -124.5v-38v-39q-87 0 -157 74t-106 186t-36 234q0 123 36 239t106.5 194.5t156.5 78.5v-43z" />
    <glyph glyph-name="parenright" unicode=")" horiz-adv-x="337" 
d="M16 -70v34q53 0 104.5 60t84.5 162t33 213q0 168 -69.5 292.5t-152.5 124.5v38v39q87 0 157 -74t106 -186t36 -234q0 -123 -36 -239t-106.5 -194.5t-156.5 -78.5v43z" />
    <glyph glyph-name="asterisk" unicode="*" horiz-adv-x="454" 
d="M355 381l-129 50l-129 -51l9 138l-89 107l134 35l75 117l74 -117l134 -34l-88 -107z" />
    <glyph glyph-name="plus" unicode="+" horiz-adv-x="532" 
d="M303 375v-202h-76v202h-202v76h202v202h76v-202h202v-76h-202z" />
    <glyph glyph-name="comma" unicode="," horiz-adv-x="220" 
d="M143 57q-8 -17 -24 -28t-35 -11q-27 0 -46.5 20.5t-19.5 48.5t19.5 48.5t46.5 20.5q49 0 82 -39.5t33 -93.5t-33 -93.5t-82 -39.5v50q26 0 45.5 23.5t19.5 59.5q0 18 -6 34z" />
    <glyph glyph-name="hyphen" unicode="-" horiz-adv-x="349" 
d="M15 465h309v-105h-309v105z" />
    <glyph glyph-name="period" unicode="." horiz-adv-x="187" 
d="M18 75q0 31 22 53t53 22t53 -22t22 -53t-22 -53t-53 -22t-53 22t-22 53z" />
    <glyph glyph-name="slash" unicode="/" horiz-adv-x="397" 
d="M18 -36l273 795h87l-273 -795h-87z" />
    <glyph glyph-name="zero" unicode="0" horiz-adv-x="550" 
d="M111 363q0 -121 51.5 -200t110.5 -79t110.5 79t51.5 200t-51.5 200t-110.5 79t-110.5 -79t-51.5 -200zM21 363q0 95 30 178.5t88.5 137t133.5 53.5t133.5 -53.5t88.5 -137t30 -178.5t-30 -178.5t-88.5 -137t-133.5 -53.5t-133.5 53.5t-88.5 137t-30 178.5z" />
    <glyph glyph-name="one" unicode="1" horiz-adv-x="349" 
d="M129 645h-78v90h159v-628h117v-90h-315v90h117v538z" />
    <glyph glyph-name="two" unicode="2" horiz-adv-x="532" 
d="M71 538h-43q0 97 68 165.5t164 68.5t164 -68.5t68 -165.5q0 -49 -32 -109t-87 -120.5t-110.5 -111t-117.5 -99.5h348v-88h-468v44v44q3 2 32.5 26.5t47.5 39.5t53 45t58.5 53.5l55.5 55.5t53 59t41 56t30 55.5t10 49.5q0 60 -42.5 103t-103.5 43t-103.5 -43t-42.5 -103
h-43z" />
    <glyph glyph-name="three" unicode="3" horiz-adv-x="448" 
d="M216 348v45v6v39q47 0 80.5 34t33.5 83t-33.5 83t-80.5 34t-80.5 -34t-33.5 -83h-45h-45q0 85 59.5 146t144.5 61t144.5 -61t59.5 -146q0 -48 -20.5 -90.5t-56.5 -71.5q36 -29 56.5 -71.5t20.5 -90.5q0 -85 -59.5 -146t-144.5 -61t-144.5 61t-59.5 146h45h45
q0 -49 33.5 -83t80.5 -34t80.5 34t33.5 83t-33.5 83t-80.5 34z" />
    <glyph glyph-name="four" unicode="4" horiz-adv-x="504" 
d="M361 500h125v-485h-125v196h-345v32l236 530h135l-190 -443h164v170z" />
    <glyph glyph-name="five" unicode="5" horiz-adv-x="477" 
d="M45 218h37q0 -73 38 -103t115 -30q70 0 108.5 39.5t38.5 117.5q0 81 -40.5 127t-106.5 46h-208v360h398v-43v-43h-324v-188h134q95 0 157.5 -71.5t62.5 -187.5q0 -115 -62.5 -178.5t-157.5 -63.5q-44 0 -82.5 11t-72 35t-53 68t-19.5 104h37z" />
    <glyph glyph-name="six" unicode="6" horiz-adv-x="502" 
d="M109 441q62 54 143 54q97 0 163.5 -74.5t66.5 -177t-66.5 -177t-163.5 -74.5t-163.5 74.5t-66.5 177.5v166q0 90 27 165.5t80 124.5t123 55q80 5 144 -29.5t81 -103.5l-92 -17q-9 37 -44 53.5t-80 10.5q-63 -8 -107.5 -79.5t-44.5 -148.5zM109 243.5q0 -69.5 43 -117
t100 -47.5t100 47.5t43 117t-43 117t-100 47.5t-100 -47.5t-43 -117z" />
    <glyph glyph-name="seven" unicode="7" horiz-adv-x="574" 
d="M108 672v-99h-93v192h531v-93l-243 -672h-96l243 672h-342z" />
    <glyph glyph-name="eight" unicode="8" horiz-adv-x="520" 
d="M108 241.5q0 -56.5 43.5 -98.5t106.5 -42t106.5 42t43.5 98.5t-43.5 98.5t-106.5 42t-106.5 -42t-43.5 -98.5zM58 570q0 80 59.5 133.5t140.5 53.5t140.5 -53.5t59.5 -133.5q0 -82 -62 -137q47 -32 74.5 -82t27.5 -109q0 -98 -71 -166t-169 -68t-169 68t-71 166
q0 59 27.5 109t74.5 82q-62 55 -62 137zM258 476q48 0 79 28.5t31 65t-31 65.5t-79 29t-79 -29t-31 -65.5t31 -65t79 -28.5z" />
    <glyph glyph-name="nine" unicode="9" horiz-adv-x="556" 
d="M134 507.5q0 -60.5 41 -103t97 -42.5t96.5 42.5t40.5 103t-40.5 103t-96.5 42.5t-97 -42.5t-41 -103zM14 507.5q0 111.5 75.5 190.5t182.5 79t182.5 -79t75.5 -190q0 -71 -1 -114.5t-7 -103t-17 -95t-31.5 -76t-50 -62t-73.5 -36t-101 -14.5h-106v124h106q77 0 110 30.5
t43 112.5q-60 -36 -130 -36q-107 0 -182.5 79t-75.5 190.5z" />
    <glyph glyph-name="colon" unicode=":" horiz-adv-x="187" 
d="M18 375q0 31 22 53t53 22t53 -22t22 -53t-22 -53t-53 -22t-53 22t-22 53zM18 75q0 31 22 53t53 22t53 -22t22 -53t-22 -53t-53 -22t-53 22t-22 53z" />
    <glyph glyph-name="semicolon" unicode=";" horiz-adv-x="220" 
d="M21 285q0 27 18.5 46.5t44.5 19.5t44.5 -19.5t18.5 -46.5t-18.5 -46.5t-44.5 -19.5t-44.5 19.5t-18.5 46.5zM143 57q-8 -17 -24 -28t-35 -11q-27 0 -46.5 20.5t-19.5 48.5t19.5 48.5t46.5 20.5q49 0 82 -39.5t33 -93.5t-33 -93.5t-82 -39.5v50q26 0 45.5 23.5t19.5 59.5
q0 18 -6 34z" />
    <glyph glyph-name="less" unicode="&#x3c;" horiz-adv-x="512" 
d="M465 645l-317 -256l317 -255v-93l-432 348l432 348v-92z" />
    <glyph glyph-name="equal" unicode="=" horiz-adv-x="421" 
d="M12 300h385v-77h-385v77zM12 453h385v-77h-385v77z" />
    <glyph glyph-name="greater" unicode="&#x3e;" horiz-adv-x="512" 
d="M47 645v92l432 -348l-432 -348v93l317 255z" />
    <glyph glyph-name="question" unicode="?" horiz-adv-x="472" 
d="M84 649l-30 33l-30 33q62 57 181 57q101 0 170.5 -78t69.5 -184q0 -92 -54.5 -156.5t-140.5 -79.5v-90h-90v176h45q65 0 107.5 41t42.5 109q0 72 -45 122t-105 50q-84 0 -121 -33zM147 67q0 26 17 44.5t40 18.5t40 -18.5t17 -44.5t-17 -44.5t-40 -18.5t-40 18.5t-17 44.5
z" />
    <glyph glyph-name="at" unicode="@" horiz-adv-x="482" 
d="M150 268q0 41 21.5 64t60.5 23q31 0 51 -14l4 13h37v-110q0 -38 33 -38q20 0 36.5 23t16.5 65q0 188 -169 188q-118 0 -159 -112q-13 -37 -13 -86q0 -188 154 -212l-6 -50q-96 13 -147.5 82.5t-51.5 180.5q0 84 37.5 143.5t101.5 85.5q40 17 84 17q219 0 219 -233
q0 -60 -25.5 -97t-78.5 -37q-50 0 -66 37q-26 -19 -57 -19q-37 0 -60 24t-23 62zM283 296q-17 18 -43 18q-49 0 -49 -46q0 -44 46 -44q29 0 46 21v51z" />
    <glyph glyph-name="A" unicode="A" horiz-adv-x="535" 
d="M516 0h-93l-62 210h-197l-62 -210h-93l207 705h93zM334 303l-72 244l-71 -244h143z" />
    <glyph glyph-name="B" unicode="B" horiz-adv-x="453" 
d="M426 514q0 -49 -22 -91.5t-61 -71.5q39 -29 61 -71t22 -91q0 -84 -62.5 -144t-153.5 -60h-183v733h183q92 0 154 -60t62 -144zM113 634v-240h97q52 0 89 34.5t37 85t-37 85.5t-89 35h-97zM210 309h-97v-240h97q52 0 89 34.5t37 85.5t-37 85.5t-89 34.5z" />
    <glyph glyph-name="C" unicode="C" horiz-adv-x="663" 
d="M541 260l96 -53q-17 -83 -84 -141q-78 -66 -190 -66q-142 0 -228 58q-117 89 -110 314q6 209 87 298q42 45 101 61.5t136 16.5q226 0 282 -183l4 -15q-45 -14 -91 -27l-14 -5l-4 15q-19 59 -58.5 82t-118.5 23q-43 0 -60 -1t-43.5 -7.5t-42.5 -20.5q-62 -52 -68 -240
q-6 -187 85 -235q29 -15 61.5 -19.5t81.5 -4.5q73 0 122 48q41 40 56 102z" />
    <glyph glyph-name="D" unicode="D" horiz-adv-x="637" 
d="M237 104q105 0 181.5 76t76.5 185t-76.5 184.5t-181.5 75.5h-101v-521h101zM237 729q102 0 187.5 -49.5t134.5 -133.5t49 -181.5t-49 -181.5t-134.5 -133.5t-187.5 -49.5h-213v729h213z" />
    <glyph glyph-name="E" unicode="E" horiz-adv-x="373" 
d="M348 11h-328v737h328v-80h-248v-254h179v-81h-179v-242h248v-80z" />
    <glyph glyph-name="F" unicode="F" horiz-adv-x="352" 
d="M17 756h315v-100h-224v-226h210v-77h-210v-333h-91v736z" />
    <glyph glyph-name="G" unicode="G" horiz-adv-x="715" 
d="M420 384v45h222h45v-45q0 -152 -99.5 -259t-239.5 -107t-236.5 110t-96.5 262t96.5 262t236.5 110q76 0 142 -35.5t113 -96.5l-36 -27l-36 -27q-35 45 -82.5 70.5t-100.5 25.5q-99 0 -171 -81.5t-72 -200.5t72 -200.5t171 -81.5q90 0 160.5 65t85.5 166h-174v45z" />
    <glyph glyph-name="H" unicode="H" horiz-adv-x="551" 
d="M19 743h89v-309h334v309h89v-743h-89v333h-334v-333h-89v743z" />
    <glyph glyph-name="I" unicode="I" horiz-adv-x="283" 
d="M178 72h80v-72h-243v72h80v628h-80v72h243v-72h-80v-628z" />
    <glyph glyph-name="J" unicode="J" horiz-adv-x="526" 
d="M447 753h55v-525q0 -103 -70 -176.5t-171 -73.5t-171 73.5t-70 176.5h55h55q0 -59 38.5 -99.5t92.5 -40.5t92.5 40.5t38.5 99.5v525h55z" />
    <glyph glyph-name="K" unicode="K" horiz-adv-x="433" 
d="M18 714h87v-246l201 246h105l-270 -330l270 -363h-105l-201 261v-261h-87v693z" />
    <glyph glyph-name="L" unicode="L" horiz-adv-x="406" 
d="M18 717h87v-603h270v-90h-357v693z" />
    <glyph glyph-name="M" unicode="M" horiz-adv-x="636" 
d="M108 602v-581h-83v693h82l211 -260l211 260h82v-693h-83v581l-210 -258z" />
    <glyph glyph-name="N" unicode="N" horiz-adv-x="553" 
d="M24 717h93l312 -528v528h93v-717h-93l-312 540v-540h-93v717z" />
    <glyph glyph-name="O" unicode="O" horiz-adv-x="592" 
d="M94 375q0 -128 60.5 -213.5t136.5 -85.5t136.5 85.5t60.5 213.5t-60.5 213.5t-136.5 85.5t-136.5 -85.5t-60.5 -213.5zM14 375q0 153 78.5 266t198.5 113t198.5 -113t78.5 -266t-78.5 -266t-198.5 -113t-198.5 113t-78.5 266z" />
    <glyph glyph-name="P" unicode="P" horiz-adv-x="454" 
d="M242 754q80 0 134 -63.5t54 -148.5t-53.5 -148t-134.5 -63h-119v-304h-103v727h222zM123 421h119q38 0 68 34.5t30 87t-30 87t-68 34.5h-119v-243z" />
    <glyph glyph-name="Q" unicode="Q" horiz-adv-x="730" 
d="M13 368q0 159 100.5 274t246.5 115t246.5 -115t100.5 -274q0 -155 -95 -268l57 -58l-75 -73l-60 62q-80 -52 -174 -52q-146 0 -246.5 115t-100.5 274zM107 368q0 -124 75 -209.5t178 -85.5q55 0 106 27l-88 90l76 74l92 -96q67 84 67 200q0 124 -75 209.5t-178 85.5
t-178 -85.5t-75 -209.5z" />
    <glyph glyph-name="R" unicode="R" horiz-adv-x="524" 
d="M288 745q90 0 154 -65t64 -156t-64 -156t-154 -65h-54l275 -303h-138l-260 303v-303h-94v745h271zM288 397q51 0 87.5 37t36.5 90t-36.5 90t-87.5 37h-177v-254h177z" />
    <glyph glyph-name="S" unicode="S" horiz-adv-x="535" 
d="M419 565l-23 -2q-3 35 -49.5 65t-101.5 25q-92 -8 -95 -117q-1 -46 21 -73t86 -28h12q64 1 118 -20.5t88.5 -69.5t34.5 -114q0 -99 -72.5 -168t-173.5 -69t-173.5 69t-72.5 168h45h45q0 -60 45.5 -103.5t110.5 -43.5t110.5 43.5t45.5 103.5q0 56 -38.5 86t-110.5 28h-16
q-53 1 -92.5 19t-61.5 47t-32 61t-9 66q2 92 53 145.5t125 59.5q54 4 108.5 -14t94.5 -60t45 -98l-45 -4z" />
    <glyph glyph-name="T" unicode="T" horiz-adv-x="601" 
d="M369 0h-137v631h-210v140h556v-140h-209v-631z" />
    <glyph glyph-name="U" unicode="U" horiz-adv-x="547" 
d="M471 753h45v-555q0 -95 -75 -158.5t-177 -63.5t-177 63.5t-75 158.5v555h45h45v-555q0 -52 46.5 -92t115.5 -40t115.5 40t46.5 92v555h45z" />
    <glyph glyph-name="V" unicode="V" horiz-adv-x="760" 
d="M378 154l237 590h126l-300 -747h-126l-300 747h126z" />
    <glyph glyph-name="W" unicode="W" horiz-adv-x="1150" 
d="M832 138l218 612h87l-261 -735h-87l-217 613l-218 -613h-87l-261 735h87l217 -612l218 612h87z" />
    <glyph glyph-name="X" unicode="X" horiz-adv-x="559" 
d="M537 15h-75l-188 304l-187 -304h-75l225 365l-225 364h75l187 -304l188 304h75l-225 -364z" />
    <glyph glyph-name="Y" unicode="Y" horiz-adv-x="496" 
d="M9 753h78l156 -276l156 276h78l-195 -345v-390h-78v390z" />
    <glyph glyph-name="Z" unicode="Z" horiz-adv-x="565" 
d="M27 699h510v-81l-411 -543h411v-81h-510v81l411 543h-411v81z" />
    <glyph glyph-name="bracketleft" unicode="[" horiz-adv-x="341" 
d="M317 -114h-290v1006h290v-90h-200v-826h200v-90z" />
    <glyph glyph-name="backslash" unicode="\" horiz-adv-x="397" 
d="M378 -36h-87l-273 795h87z" />
    <glyph glyph-name="bracketright" unicode="]" horiz-adv-x="341" 
d="M27 892h290v-1006h-290v90h200v826h-200v90z" />
    <glyph glyph-name="asciicircum" unicode="^" horiz-adv-x="397" 
d="M196 663l-100 -252h-81l141 354h81l141 -354h-81z" />
    <glyph glyph-name="underscore" unicode="_" horiz-adv-x="529" 
d="M18 0h493v-44h-493v44z" />
    <glyph glyph-name="grave" unicode="`" horiz-adv-x="202" 
d="M95 650q-4 -17 -18.5 -29.5t-34.5 -7.5q-10 3 -19 11q-12 10 -13.5 23.5t2.5 22.5t10 16q27 33 60 23q39 -12 64.5 -34t33.5 -63l-25 -5l-24 -4q-4 19 -12 29t-24 18z" />
    <glyph glyph-name="a" unicode="a" horiz-adv-x="472" 
d="M345 380q-11 34 -39 53.5t-78.5 24.5t-122.5 -13q-13 48 -25 96l10 3q76 18 143 11.5t116 -31t77.5 -75.5t28.5 -122v-315h-103v28q-45 -38 -118 -38q-93 0 -156 60t-63 145t63 145t156 60q67 0 111 -32zM234 313q-48 0 -82 -30.5t-34 -75.5t34 -75.5t82 -30.5t82 30.5
t34 75.5t-34 75.5t-82 30.5z" />
    <glyph glyph-name="b" unicode="b" horiz-adv-x="490" 
d="M27 0v687h99v-292q55 38 122 38q90 0 153.5 -64.5t63.5 -155.5t-63.5 -155.5t-153.5 -64.5q-67 0 -122 38v-31h-99zM126 277v-128q17 -34 50 -55t72 -21q57 0 97 41t40 99t-40 99t-97 41q-39 0 -72 -21t-50 -55z" />
    <glyph glyph-name="c" unicode="c" horiz-adv-x="569" 
d="M554 185q-37 -93 -101 -148t-160 -55q-83 0 -148 42t-98.5 109t-33.5 146t33.5 146t98.5 109t148 42q98 0 163 -57.5t100 -152.5l-81 -46q-64 154 -180 154q-74 0 -131 -56.5t-57 -141.5t57 -141.5t131 -56.5q112 0 178 149z" />
    <glyph glyph-name="d" unicode="d" horiz-adv-x="524" 
d="M384 748h120v-745h-120v18q-57 -36 -126 -36q-101 0 -171.5 72t-70.5 173t70.5 173t171.5 72q69 0 126 -36v309zM121 230.5q0 -59.5 40.5 -100.5t96.5 -41q42 0 76.5 24t49.5 63v109q-15 39 -49.5 63t-76.5 24q-56 0 -96.5 -41t-40.5 -100.5z" />
    <glyph glyph-name="e" unicode="e" horiz-adv-x="487" 
d="M466 110q-27 -64 -84.5 -98t-118.5 -34q-94 0 -171.5 88t-77.5 222q0 133 61 198.5t157 65.5q94 0 151 -65t57 -199v-75h-321q8 -42 34.5 -72.5t56.5 -42.5t59 -12q35 0 69.5 15.5t49.5 50.5zM353 288q-1 87 -30.5 118.5t-84.5 31.5q-57 0 -90.5 -32t-34.5 -118h240z" />
    <glyph glyph-name="f" unicode="f" horiz-adv-x="355" 
d="M111 0h-45v378h-48v45v45h48v51q0 99 64 168t161 69h42v-45v-45h-42q-59 0 -97 -41t-38 -106v-51h171v-45v-45h-171v-378h-45z" />
    <glyph glyph-name="g" unicode="g" horiz-adv-x="610" 
d="M114 274q0 -82 56.5 -140t135.5 -58q61 0 110 36t70 93v138q-21 57 -70 93t-110 36q-79 0 -135.5 -58t-56.5 -140zM24 274q0 119 82.5 203.5t199.5 84.5q108 0 180 -73v58h45h45v-546q0 -98 -48.5 -143t-148.5 -45h-116v90h116q48 0 77.5 27.5t29.5 70.5v61
q-73 -76 -180 -76q-117 0 -199.5 84.5t-82.5 203.5z" />
    <glyph glyph-name="h" unicode="h" horiz-adv-x="490" 
d="M21 750h84v-271q56 52 134 52q94 0 158.5 -69t64.5 -165v-297h-90v297q0 60 -39 102t-94 42q-58 0 -96 -42.5t-38 -109.5v-289h-84v750z" />
    <glyph glyph-name="i" unicode="i" horiz-adv-x="163" 
d="M27 600.5q0 23.5 15.5 40t38.5 16.5t38.5 -16.5t15.5 -40t-15.5 -40t-38.5 -16.5t-38.5 16.5t-15.5 40zM27 462h108v-462h-108v462z" />
    <glyph glyph-name="j" unicode="j" horiz-adv-x="235" 
d="M92 641q0 21 15 34.5t38 13.5q24 0 40.5 -13.5t16.5 -34.5t-16.5 -36t-39.5 -15t-38.5 15t-15.5 36zM18 -124v55q32 0 53 19t21 43v498h55h55v-498q0 -73 -55 -122.5t-129 -49.5v55z" />
    <glyph glyph-name="k" unicode="k" horiz-adv-x="419" 
d="M12 723h87v-387l183 183h120l-266 -259l266 -260h-120l-183 183v-183h-87v723z" />
    <glyph glyph-name="l" unicode="l" horiz-adv-x="135" 
d="M18 15v675l96 57v-732h-96z" />
    <glyph glyph-name="m" unicode="m" horiz-adv-x="709" 
d="M19 540h80v-27q46 35 104 35q44 0 82 -20t64 -54q26 34 64 54t82 20q78 0 132.5 -58.5t54.5 -138.5v-351h-82v351q0 48 -31 81.5t-74 33.5t-74 -33.5t-31 -81.5v-351h-82v351q0 48 -31 81.5t-74 33.5q-45 0 -74.5 -34.5t-29.5 -87.5v-344h-80v540z" />
    <glyph glyph-name="n" unicode="n" horiz-adv-x="530" 
d="M21 545h104v-34q57 40 134 40q105 0 174 -71.5t69 -172.5v-307h-110v307q0 56 -39.5 95t-93.5 39q-58 0 -96 -39.5t-38 -102.5v-299h-104v545z" />
    <glyph glyph-name="o" unicode="o" horiz-adv-x="595" 
d="M108 275.5q0 -75.5 54.5 -129t131.5 -53.5t131.5 53.5t54.5 129t-54.5 129t-131.5 53.5t-131.5 -53.5t-54.5 -129zM15 275.5q0 114.5 82 195t197 80.5t197 -80.5t82 -195t-82 -195t-197 -80.5t-197 80.5t-82 195z" />
    <glyph glyph-name="p" unicode="p" horiz-adv-x="613" 
d="M18 -173v709h109v-53q80 70 186 70q81 0 146 -40t100.5 -107t35.5 -146q0 -120 -80 -202.5t-202 -82.5q-106 0 -186 70v-218h-109zM313 456q-65 0 -117 -40.5t-69 -103.5v-95q17 -64 69 -104t117 -40q78 0 134 52.5t56 134.5q0 83 -56 139.5t-134 56.5z" />
    <glyph glyph-name="q" unicode="q" horiz-adv-x="613" 
d="M595 -173h-109v218q-80 -70 -186 -70q-81 0 -146 40.5t-100.5 107.5t-35.5 145q0 120 79.5 201.5t202.5 81.5q106 0 186 -70v53h109v-707zM300 454q-79 0 -134.5 -52t-55.5 -134t56 -138.5t134 -56.5q65 0 117 40t69 104v93q-17 63 -69 103.5t-117 40.5z" />
    <glyph glyph-name="r" unicode="r" horiz-adv-x="472" 
d="M400 336h-47q0 52 -34.5 88t-80.5 36t-80.5 -36t-34.5 -88v-336h-47h-47v336v213h94v-31q52 36 115 36q87 0 148 -64.5t61 -153.5h-47z" />
    <glyph glyph-name="s" unicode="s" horiz-adv-x="454" 
d="M360 443l-29 -27q-43 45 -107 44q-49 0 -72 -27q-18 -22 -0.5 -42t47 -34t59.5 -20q85 -16 132 -70.5t41 -119.5q-6 -64 -59 -112.5t-129 -49.5q-61 -1 -126 28t-109 64l28 35l28 35q43 -34 96 -55.5t95 -14.5q32 5 54.5 26.5t26.5 49.5q5 32 -18.5 59t-77.5 37
q-110 22 -162 85q-32 36 -28.5 85t45.5 83q37 31 88.5 42t110 -4.5t102.5 -61.5z" />
    <glyph glyph-name="t" unicode="t" horiz-adv-x="559" 
d="M492 146l42 -22q-35 -64 -95.5 -103t-132.5 -39q-110 0 -186.5 84t-76.5 200v190h-25v97h25v166h47h47v-166h322v-97h-322v-190q0 -80 50.5 -135t118.5 -55q45 0 83.5 24.5t61.5 67.5z" />
    <glyph glyph-name="u" unicode="u" horiz-adv-x="499" 
d="M422 0h-47v32q-58 -46 -130 -46q-93 0 -158.5 71t-65.5 171v281h47h46v-281q0 -59 38.5 -100.5t92.5 -41.5t92 41.5t38 100.5v281h47h46v-281v-228h-46z" />
    <glyph glyph-name="v" unicode="v" horiz-adv-x="660" 
d="M8 575h100l218 -468l218 468h100l-268 -575h-100z" />
    <glyph glyph-name="w" unicode="w" horiz-adv-x="1012" 
d="M714 142l162 425h108l-216 -567h-108l-162 425l-162 -425h-108l-216 567h108l162 -425l162 425h108z" />
    <glyph glyph-name="x" unicode="x" horiz-adv-x="559" 
d="M441 552h90l-211 -284l211 -283h-90l-167 223l-166 -223h-90l212 283l-212 284h90l166 -223z" />
    <glyph glyph-name="y" unicode="y" horiz-adv-x="577" 
d="M6 549h84l189 -448l189 448h90l-309 -732h-90l78 184z" />
    <glyph glyph-name="z" unicode="z" horiz-adv-x="550" 
d="M15 570h510v-114l-360 -342h360v-114h-510v114l348 342h-348v114z" />
    <glyph glyph-name="braceleft" unicode="{" horiz-adv-x="377" 
d="M353 -114h-290v456h-48v117h48v433h290v-90h-200v-826h200v-90z" />
    <glyph glyph-name="bar" unicode="|" horiz-adv-x="151" 
d="M36 849h72v-906h-72v906z" />
    <glyph glyph-name="braceright" unicode="}" horiz-adv-x="377" 
d="M15 -114v90h200v826h-200v90h290v-433h48v-117h-48v-456h-290z" />
    <glyph glyph-name="asciitilde" unicode="~" horiz-adv-x="649" 
d="M60 357h-45q0 99 55 158.5t134 60.5q61 1 113 -32t52 -94q0 -35 27.5 -51.5t56.5 -11.5q36 7 58.5 46.5t22.5 100.5h45h45q0 -107 -45.5 -166t-119.5 -59q-29 0 -59 8.5t-58 24.5t-45.5 44.5t-17.5 63.5q0 23 -23.5 36t-48.5 12q-41 -2 -71.5 -41.5t-30.5 -99.5h-45z" />
    <glyph glyph-name="uni00A0" unicode="&#xa0;" horiz-adv-x="460" 
 />
    <glyph glyph-name="exclamdown" unicode="&#xa1;" horiz-adv-x="157" 
d="M135 672q0 -26 -17.5 -44.5t-42.5 -18.5t-42.5 18.5t-17.5 44.5t17.5 44.5t42.5 18.5t42.5 -18.5t17.5 -44.5zM111 0h-69v555h69v-555z" />
    <glyph glyph-name="cent" unicode="&#xa2;" horiz-adv-x="569" 
d="M251 609h86v-36q151 -24 219 -207l-81 -46q-52 124 -138 149v-385q83 23 136 143l81 -42q-32 -81 -85.5 -134t-131.5 -66v-36h-86v36q-108 15 -173 99t-65 195t65 195t173 99v36zM251 469q-61 -16 -102.5 -68.5t-41.5 -124t41.5 -124t102.5 -68.5v385z" />
    <glyph glyph-name="sterling" unicode="&#xa3;" horiz-adv-x="526" 
d="M130 0h-55h-55v102v423q0 103 70 176.5t171 73.5t171 -73.5t70 -176.5h-55h-55q0 59 -38.5 99.5t-92.5 40.5t-92.5 -40.5t-38.5 -99.5v-127h304v-106h-304v-190h274v76h94v-76v-102h-94h-274z" />
    <glyph glyph-name="yen" unicode="&#xa5;" horiz-adv-x="496" 
d="M9 753h78l156 -276l156 276h78l-195 -345v-33h154v-77h-154v-76h154v-77h-154v-127h-78v127h-153v77h153v76h-153v77h153v33z" />
    <glyph glyph-name="section" unicode="&#xa7;" 
d="M430 540q-125 59 -125 127q0 54 45 95q60 53 171 53q199 0 234 -184h-94q-17 105 -139 105q-127 0 -127 -69q0 -50 189 -107q169 -52 169 -152q0 -67 -64 -110q-29 -19 -53 -25q128 -53 128 -143q0 -68 -55 -114q-63 -53 -181 -53q-226 0 -268 208h100q23 -129 175 -129
q82 0 119 40q19 20 19 47q0 28 -21 45q-30 25 -159 68q-126 41 -163 75q-38 34 -38 86q0 94 138 137zM530 499q-149 -7 -149 -89q0 -24 15 -36q35 -28 139 -63q129 6 129 93q0 28 -17 42q-31 24 -117 53z" />
    <glyph glyph-name="dieresis" unicode="&#xa8;" horiz-adv-x="256" 
d="M159 681q0 17 11.5 29.5t27.5 12.5t27.5 -12.5t11.5 -29.5t-11.5 -29.5t-27.5 -12.5t-27.5 12.5t-11.5 29.5zM24 681q0 17 11.5 29.5t27.5 12.5t27.5 -12.5t11.5 -29.5t-11.5 -29.5t-27.5 -12.5t-27.5 12.5t-11.5 29.5z" />
    <glyph glyph-name="copyright" unicode="&#xa9;" horiz-adv-x="735" 
d="M8 366q0 82 29.5 151t76.5 118.5t112 80.5t142 31t142 -31t112 -80.5t76.5 -118.5t29.5 -150.5t-29.5 -150.5t-76.5 -118.5t-112 -80.5t-142 -31t-142 31t-112 80.5t-76.5 118.5t-29.5 150zM51 365q0 -72 25.5 -133t67.5 -105t99.5 -71.5t125.5 -27.5q132 0 226 99
q94 98 94 238q0 139 -94 240q-93 99 -226 99q-69 0 -126.5 -27.5t-98.5 -71.5q-93 -102 -93 -240zM364 213q46 0 80 43l65 -47q-49 -85 -146 -85q-64 0 -105.5 40.5t-61.5 102.5q-13 43 -13 94q0 79 27.5 136.5t77.5 83.5q33 18 75 18q101 0 149 -92l-68 -46q-33 49 -81 49
q-49 0 -74.5 -42.5t-25.5 -106.5q0 -60 27 -104t74 -44z" />
    <glyph glyph-name="ordfeminine" unicode="&#xaa;" horiz-adv-x="341" 
d="M246 652q-12 35 -52 47t-119 -3q-9 35 -17 65l7 2q113 23 186.5 -14.5t73.5 -132.5v-213h-74v19q-32 -26 -84 -26q-66 0 -110.5 40.5t-44.5 98.5t44.5 98.5t110.5 40.5q48 0 79 -22zM167.5 607q-34.5 0 -58.5 -21t-24 -51t24 -51t58.5 -21t58.5 21t24 51t-24 51t-58.5 21
z" />
    <glyph glyph-name="guillemotleft" unicode="&#xab;" horiz-adv-x="710" 
d="M683 645l-317 -256l317 -255v-93l-432 348l432 348v-92zM453 645l-317 -256l317 -255v-93l-432 348l432 348v-92z" />
    <glyph glyph-name="logicalnot" unicode="&#xac;" horiz-adv-x="679" 
d="M7 75q2 4 3 7q2 4 2 8q4 7 7 13q2 4 4 7q1 3 4 5q2 4 4 6q2 4 5 5l5 5q2 3 6 5q1 3 5 5q2 3 5 5q3 1 6 3q8 5 16 9q4 2 7 3l4 2q3 1 8 2q5 0 8 2q5 0 8 1q10 0 13 -1q10 0 14 -2q5 0 8 -2q4 0 8 -2q2 -3 5 -5q3 -1 7 -3l6 -4q2 -3 2 -7q-1 -4 -4 -6q-2 -2 -6 -4
q-3 -1 -8 -1l-20 10q-3 2 -8 2q-4 1 -9 1t-8 -1q-5 0 -8 -2q-5 0 -8 -2q-4 -2 -7 -3l-6 -4q-2 -3 -5 -5l-4 -2q-3 -1 -5 -4l-6 -4q-2 -4 -5 -6q-2 -3 -3 -6q-3 -2 -5 -5t-4 -7q-1 -3 -4 -5q-1 -4 -3 -8q0 -1 -1 -3q-2 -3 -2 -8q0 -15 2 -19q1 -3 3 -6l4 -6q3 -2 5 -6
q3 -1 7 -3q3 -1 6 -3l8 -2q5 -1 9 -2h15q3 2 6 3q5 1 8 2q4 1 8 3q4 1 7 2q4 2 7 4q1 3 5 5q2 3 4 5q4 2 7 4q3 1 8 1l8 -2l4 -6q2 -3 0 -7q-1 -4 -4 -6q-2 -3 -5 -5q-2 -3 -5 -5q-2 -3 -5 -5q-5 -2 -10 -5q-3 -2 -7 -3q-4 0 -8 -2q-3 -2 -8 -2t-8 -2q-5 0 -9 -1q-5 0 -8 -2
q-5 0 -8 2h-15q-3 1 -8 1q-4 2 -7 3q-5 1 -8 3q-4 1 -6 4q-4 1 -7 3q-4 1 -5 5q-3 1 -5 4q-3 3 -6 5q-2 3 -3 7q-2 3 -3 6q-2 4 -2 9q-2 3 -2 8v17zM31 464q2 4 2 9q2 3 2 8q1 3 1 8t2 9q0 5 2 8q0 5 1 8q2 4 2 8q2 4 3 8t2 7q1 5 2 8l2 4q2 3 2 8q1 3 3 7q2 3 2 8l22 42
q2 4 4 7q3 2 4 5q2 4 4 6l2 4l4 6q1 3 4 5q1 2 2 3q2 4 5 5q2 4 4 7q1 3 4 5q3 3 4 6q3 3 4 7q2 5 5 10q2 3 5 5t5 4q4 2 5 5q3 3 6 5q1 3 5 5q2 3 3 6l5 5l4 6q3 2 5 5q3 2 5 5q2 1 3 2q4 2 6 5q3 2 5 5q2 0 3 1q4 2 6 5q15 0 18 -2q2 -1 3 -2q4 -2 6 -4l5 -5q2 -3 2 -8
t5 -5q3 2 8 2q4 1 9 1t8 2q25 0 28 2q55 0 58 -2q15 0 20 -1q4 -1 9 -1t8 -1q10 0 13 -2q5 0 9 -1q5 -1 10 -1l42 -22q4 -2 5 -5q3 -2 7 -4q3 -2 5 -4q4 -2 6 -4l6 -4q2 -3 6 -5l6 -4l5 -5q3 -1 6 -4q2 -3 5 -5q3 -1 5 -4q3 -2 5 -5q3 -2 5 -5q3 -2 5 -6q2 -2 4 -5
q3 -2 5 -5q2 -4 5 -5q2 -3 4 -7q1 -3 3 -6q2 -4 4 -6q1 -4 3 -7q2 -4 5 -5q2 -4 3 -7q1 -5 2 -8q4 -7 7 -13q2 -3 2 -8q2 -4 3 -7q2 -3 3 -7q1 -5 3 -8q1 -3 2 -8q1 -3 3 -7q0 -5 1 -8q1 -2 2 -3q2 -4 3 -8t2 -7q0 -5 2 -8q0 -5 2 -9q1 -3 2 -8q1 -3 1 -8q2 -4 2 -9
q2 -3 2 -8t1 -8q0 -10 2 -13q0 -5 1 -9q1 -5 1 -10q0 -35 2 -38q0 -5 -2 -8q0 -5 -1 -10q-1 -3 -1 -8t-2 -9q0 -10 -1 -13q-1 -2 -1 -4q-1 -4 -3 -8q0 -5 -1 -8q-2 -3 -2 -8q-1 -2 -2 -3q-2 -4 -2 -9q-1 -3 -4 -5q-1 -2 -1 -4q-2 -3 -3 -7q-3 -5 -5 -10q-2 -3 -5 -5l-4 -6
q-2 -3 -5 -5l-4 -6q-3 -2 -5 -6q-1 -3 -5 -5q-3 -2 -5 -4l-5 -5q-2 -3 -5 -5q-2 -3 -6 -5q-1 -1 -3 -1q-3 -2 -5 -5l-6 -4q-3 -3 -6 -4l-4 -2q-3 -1 -5 -4q-3 -2 -7 -4q-3 -2 -7 -3q-4 0 -7 -2l-4 -2q-3 -1 -8 -1q-3 -2 -8 -2q-3 -2 -8 -2q-4 -2 -9 -2q-3 -1 -8 -1
q-10 0 -13 -2q-15 0 -19 -1q-5 -1 -10 -1q-35 0 -38 -1q2 -4 3 -7q2 -3 5 -6q1 -3 4 -5q3 -5 5 -10q2 -3 3 -7l4 -6l2 -8q2 -3 3 -7q4 -7 7 -13q2 -3 5 -2q2 3 3 7t3 7q1 3 3 7q2 3 3 6l16 30q1 3 3 7l4 6l6 4q20 0 23 -2q3 -1 5 -5q0 -5 3 -7q0 -4 2 -7q0 -5 1 -10
q1 -3 3 -7q0 -45 -1 -50q-1 -3 -1 -8q0 -10 -2 -14q0 -25 -2 -28q0 -15 -3 -16q-3 -3 -8 -3t-9 1l-4 2q-3 1 -5 4q0 30 2 34q0 10 2 13q0 50 -2 53q-2 0 -4 -3l-10 -20q-2 -3 -2 -8q-1 -3 -3 -7q-2 -3 -3 -7q-1 -1 -2 -3l-2 -8q-2 -3 -2 -8q-3 -2 -3 -6l-2 -4q-1 -3 -3 -7
l-8 -2q-3 -1 -7 0q-5 0 -8 2t-5 5q-1 4 -3 7q0 5 -1 9t-3 8q-1 3 -2 7q-3 2 -3 7q-2 4 -3 7l-2 4q-1 3 -2 8q-5 9 -10 19q-2 3 -3 0q0 -35 -2 -38q0 -35 -2 -38q0 -15 -2 -19q-3 -1 -8 -1q-3 -2 -6 0q-5 0 -9 1l-4 6q0 25 2 28q0 100 1 104q0 5 -4 5q-25 0 -25 -1q4 -2 7 -4
q2 -3 2 -8q0 -55 -1 -59t-1 -9q0 -35 -2 -38v-20q-3 -2 -7 -3q-5 -1 -8 1q-5 0 -9 1q-2 3 -3 7q0 15 -2 18v10q0 5 -2 8q-1 4 -4 6q-35 0 -39 -1t-7 -2q-3 -3 -3 -8t-2 -8q0 -30 -2 -33q-3 -2 -7 -3q-10 0 -13 2q-4 1 -7 3v10q0 65 2 68q0 20 1 24v9q0 5 1 10q2 3 6 3
q4 2 9 2t8 -2q4 -1 6 -5q1 -3 1 -8q-1 -3 -1 -8q0 -35 3 -37h9q35 0 39 1q3 2 4 6v54q1 4 2 9q1 1 3 2q3 2 8 2q-3 1 -8 1t-9 1t-9 1q-15 0 -18 2q-10 0 -13 1q-5 0 -9 2q-3 2 -8 2q-3 2 -8 2q-4 1 -9 1q-8 5 -16 9q-3 2 -8 2q-2 0 -4 1l-6 4q-3 2 -7 3q-11 6 -23 12
q-3 2 -5 5l-6 4q-2 3 -5 5l-6 4q-2 3 -5 5q-3 1 -5 5q-3 2 -5 5t-5 5q-1 1 -2 3q-3 2 -5 5l-4 6q-2 3 -5 5q-2 3 -3 6l-2 4l-4 6q-3 2 -5 5q-3 7 -7 13q-1 4 -1 9q-5 8 -9 16q-2 3 -2 8q-1 4 -3 7q0 5 -2 8t-2 8q-1 4 -1 9q-1 1 -2 3q-2 3 -2 8t-1 8q0 10 -2 14q0 10 -2 13
v56zM83 461v-50q2 -3 2 -8t1 -9q0 -10 2 -13q0 -5 2 -8q0 -5 1 -8q2 -4 2 -9q1 -1 2 -3q2 -3 2 -8q3 -7 6 -13q2 -4 2 -9q4 -6 7 -13l4 -6q2 -3 5 -5q1 -3 3 -7q2 -3 5 -5l4 -6l5 -5q2 -3 5 -5l4 -6l6 -4q3 -1 6 -4q2 -3 6 -4q1 -1 3 -2q3 -2 5 -5q8 -4 16 -9q3 -1 7 -2
q4 -2 8 -3q5 -2 10 -5q3 -2 8 -2q3 -2 8 -2l8 -2q4 -1 7 -3q10 0 13 -1q10 0 14 -2q110 0 113 2q45 0 49 1h9q10 0 14 2q5 0 8 2q5 0 8 1q4 2 8 2q10 5 20 11q3 1 5 4l6 4q3 3 6 4l5 5q2 3 5 5q2 3 6 5q1 3 4 5q3 3 4 6l5 5l14 26q2 4 2 9q1 1 2 3q1 3 1 8l2 4q2 3 2 8t2 8
q0 10 1 13q0 10 2 14q0 5 -2 8v34q-1 4 -1 9t-2 8q0 10 -2 14q0 5 -2 8q0 5 -1 8q-1 5 -2 9q-2 3 -2 8q-2 3 -2 8q-1 3 -2 8q-1 4 -3 7q0 5 -1 8l-2 4q-2 3 -2 8q-1 1 -2 3q-1 3 -1 8q-5 9 -9 17q-2 3 -2 8q-9 18 -19 36q-1 3 -4 6l-4 6q-2 2 -5 4q-2 4 -4 7q-3 2 -5 5
q-3 2 -6 3q-3 3 -5 6q-3 1 -6 4q-2 2 -5 4q-4 2 -5 5q-4 2 -7 4l-6 4q-2 3 -5 4q-4 2 -7 4q-1 3 -5 5q-5 3 -10 5q-3 2 -5 4l-4 2q-3 2 -7 3q-2 1 -3 1q-3 2 -8 2q-4 2 -9 2t-8 2h-9q-4 1 -9 1q-10 0 -14 2q-45 0 -48 -2q-35 0 -38 -1q-5 0 -8 -2q-5 0 -9 -1q-5 -1 -8 -3
q-5 0 -8 -1q-4 -2 -9 -2q-3 -2 -6 -3q-3 -2 -8 -2q-4 -2 -7 -4q-3 -1 -7 -2t-8 -3q-1 -1 -3 -1q-3 -2 -8 -2q-1 -2 -2 -3q-2 -4 -5 -6l-4 -6q-2 -2 -4 -6q-2 -2 -4 -5t-5 -5q-2 -3 -4 -7q-2 -3 -4 -5q-3 -3 -4 -6q-2 -3 -4 -7q-2 -3 -3 -6q-4 -2 -5 -5q-10 -18 -19 -36
q-2 -3 -3 -7q-1 -5 -3 -8q-1 -3 -2 -8q-1 -3 -3 -7q-1 -3 -1 -8q-2 -3 -3 -7q-1 -5 -3 -8q-1 -3 -1 -8q-2 -3 -2 -8t-2 -9q0 -5 -1 -8q0 -5 -1 -9h-1zM145 507q1 4 3 7t5 5q2 3 5 6q5 0 8 1q10 0 13 -1l4 -2q3 -1 5 -5l5 -5q2 -3 2 -7q1 -4 2 -9q1 -3 3 -7q0 -5 2 -8
q1 -3 1 -8q1 -2 2 -3q2 -4 2 -9q0 -4 1 -8q0 -5 2 -8q2 -4 4 -7q1 -3 1 -8q2 -3 4 -7q1 -3 2 -8q3 -2 5 -5q1 -3 1 -8q2 -3 5 -6q1 -3 4 -6q3 -6 7 -13q2 -3 5 -5q2 -3 3 -6q2 -3 5 -6q2 -2 4 -5q4 -2 7 -4q2 -3 5 -4q4 -2 7 -4q3 -1 8 -2q1 -1 3 -2q3 -1 8 -1l4 -2
q3 -2 8 -2q3 -1 8 -1t9 -1t9 -1q10 0 14 2q10 0 13 1q4 2 6 4q4 1 7 3l6 4q2 3 5 5q4 2 6 5q3 1 6 3q2 3 5 6q3 1 6 3q2 3 5 5q2 4 5 5q1 4 4 7l5 5q1 3 4 6q3 2 4 5q1 2 2 3q2 4 5 5q1 4 4 7q2 2 5 4q1 4 3 7l4 6q3 2 5 5q2 1 3 2q4 2 8 2q4 2 7 0q5 0 8 -2q3 -1 7 -3
q2 -5 5 -10q1 -3 1 -8q2 -4 0 -7q-2 -5 -5 -10q-1 -3 -3 -6q-2 -4 -4 -7q-1 -3 -4 -5q-2 -4 -4 -6q-4 -2 -5 -5q-1 -2 -2 -3q-2 -4 -4 -7q-3 -2 -5 -5q-1 -3 -4 -5q-3 -3 -4 -6q-2 -3 -6 -5q-1 -3 -5 -5q-1 -3 -4 -5l-5 -5q-3 -3 -6 -4q-2 -3 -4 -7q-3 -1 -5 -5q-3 -1 -7 -3
q-3 -1 -6 -4l-5 -5q-5 -2 -10 -5q-3 -2 -6 -3q-4 -2 -7 -3q-4 -2 -8 -3q-2 0 -3 -1q-4 -2 -9 -2q-3 -2 -8 -2q-30 0 -33 2q-10 0 -13 2q-10 0 -14 1q-5 0 -8 2t-7 3l-8 2q-3 2 -8 2q-3 2 -7 3q-8 5 -16 9l-6 4q-2 3 -5 5q-2 3 -5 5t-6 5q-2 2 -5 4q-1 4 -4 6t-4 6q-2 3 -5 5
l-4 6l-4 6q-2 3 -5 6q-2 4 -5 9q-1 4 -3 7l-6 14q-2 3 -3 7q-2 5 -5 10q-2 3 -2 8q-1 4 -3 8q0 4 -2 7q0 5 -1 9l-2 8q-2 3 -2 8q-1 2 -2 3q-1 4 -1 9q-2 3 -3 7t-3 8q0 5 -1 8v13zM234 631q2 4 2 9q2 3 3 7l5 5q2 2 4 5q5 0 9 2q10 0 13 -1q4 -2 7 -4q1 -2 2 -3l5 -5
q2 -3 2 -8q0 -135 -2 -138q0 -5 -2 -9q-1 -3 -3 -6q-3 -2 -5 -5q-4 -2 -8 -2q-4 -1 -9 -2q-5 0 -8 2t-5 5q-1 1 -3 2q-3 2 -5 5l-2 8v133zM355 490q1 3 1 8q0 65 2 69q0 50 2 53q0 10 2 13q0 5 3 7q2 3 5 5q2 3 6 4t9 1t8 -1q5 -1 6 -4q4 -2 6 -5q1 -3 3 -6q2 -4 2 -9
q0 -50 -2 -53q0 -80 -2 -83q0 -15 -1 -18l-2 -4l-4 -6q-1 -3 -5 -5q-3 -2 -8 -2q-3 -2 -8 -2q-4 2 -8 3q-3 1 -5 4q-3 2 -5 5l-2 4q-2 3 -2 8q-1 3 -1 8v6zM503 77q2 5 5 10q2 3 2 7q2 4 5 6q0 5 2 8q3 2 5 5q1 4 4 6l4 6l4 6q3 2 5 5q2 1 3 1q4 2 5 5q4 2 7 4q1 1 3 2
q3 1 6 4q3 2 7 3q3 2 5 5q5 0 8 2q2 0 4 1q3 2 8 2q3 2 8 2q3 1 8 1q15 0 19 -1q5 0 9 -1t7 -3q5 0 8 -2q2 -3 5 -5q4 -1 7 -3t5 -5q1 -4 1 -7q-1 -4 -5 -5l-6 -4q-5 0 -9 2q-5 0 -8 2q-1 1 -3 1q-3 2 -6 5q-4 1 -7 2q-20 0 -24 -1q-3 -2 -8 -2q-5 -3 -10 -5l-6 -4
q-3 -2 -5 -5q-3 -1 -7 -3q-2 -3 -4 -5l-3 -3q-2 -3 -5 -5q-2 -3 -5 -5l-4 -6q-1 -4 -4 -6q-1 -4 -2 -7q-2 -4 -4 -7t-2 -8q-1 -4 -1 -9q1 -3 1 -8q2 -4 2 -8l4 -6q3 -2 5 -5q3 -2 7 -4q3 -1 6 -3q4 -2 7 -3q3 -2 8 -2l8 -2q4 2 9 2t8 2q5 0 8 1q3 2 8 3q4 1 7 2l6 4q2 3 5 5
q2 3 5 5q2 3 7 4q3 1 8 1t8 -1q3 -2 5 -6q0 -5 -1 -8q-1 -5 -4 -6q-2 -4 -5 -5l-5 -5q-2 -3 -6 -5q-3 -1 -6 -3q-4 -2 -8 -2q-4 -2 -7 -3q-3 -2 -8 -2q-4 -2 -9 -2q-3 -2 -8 -2q-3 -1 -8 -1q-15 0 -18 1q-10 0 -14 2q-5 0 -8 2l-8 2q-2 2 -6 4q-4 1 -7 3t-5 5q-3 2 -5 5
q-4 1 -5 5q-3 2 -5 5q0 4 -3 7q-1 4 -3 7q-1 4 -1 9v20z" />
    <glyph glyph-name="registered" unicode="&#xae;" horiz-adv-x="480" 
d="M233 725q-61 0 -105 -30.5t-64 -78.5q-12 -31 -12 -62q0 -56 29.5 -96t76.5 -61q33 -15 75 -15q63 0 108.5 29t68.5 75q16 32 16 68q0 66 -54 117q-58 54 -139 54zM234 343q-95 0 -161 64q-63 61 -63 147q0 71 37.5 121t96.5 74q41 17 90 17q76 0 131 -35.5t80 -92.5
q17 -39 17 -84q0 -85 -66 -147q-67 -64 -162 -64zM209 619v-52h38q24 0 24 25q0 27 -24 27h-38zM317 592q0 -24 -9 -38t-29 -27l41 -91h-48l-39 84h-24v-84h-45v229h82q33 0 52 -19.5t19 -53.5z" />
    <glyph glyph-name="macron" unicode="&#xaf;" horiz-adv-x="193" 
d="M21 726h147v-54h-147v54z" />
    <glyph glyph-name="degree" unicode="&#xb0;" horiz-adv-x="286" 
d="M86 646.5q0 -22.5 15.5 -37.5t37.5 -15t37.5 15t15.5 37.5t-15.5 38t-37.5 15.5t-37.5 -15.5t-15.5 -38zM16 647q0 51 36 87t87 36t87 -36t36 -87t-36 -87t-87 -36t-87 36t-36 87z" />
    <glyph glyph-name="plusminus" unicode="&#xb1;" 
d="M476 230v255h-306v72h306v253h72v-253h306v-72h-306v-255h-72zM170 73v72h684v-72h-684z" />
    <glyph glyph-name="uni00B2" unicode="&#xb2;" 
 />
    <glyph glyph-name="uni00B3" unicode="&#xb3;" 
 />
    <glyph glyph-name="acute" unicode="&#xb4;" horiz-adv-x="202" 
d="M93 650q-15 -8 -23.5 -18t-11.5 -29l-25 4l-24 5q7 41 33 63t65 34q33 10 59 -23q6 -7 10.5 -16t3 -22.5t-13.5 -23.5q-9 -8 -19 -11q-20 -5 -34.5 7.5t-19.5 29.5z" />
    <glyph glyph-name="mu" unicode="&#xb5;" horiz-adv-x="658" 
d="M124 -123h-110q34 82 90 286t88 363h106l-7 -23l-11 -40q-48 -165 -65 -232q-5 -21 -5 -33q0 -32 25 -63q27 -32 63 -32q80 0 138 185q45 146 62 238h105q-107 -322 -107 -384q0 -40 28 -40q31 0 54 71l68 -31q-56 -120 -134 -120q-77 0 -76 95q-70 -95 -145 -95
q-81 0 -105 95l-17 -63l-22 -89l-15 -56z" />
    <glyph glyph-name="paragraph" unicode="&#xb6;" 
d="M775 833v-74h-50v-813h-76v813h-103v-813h-76v420q-89 11 -140 50q-69 53 -69 186q0 106 71 172q63 59 177 59h266z" />
    <glyph glyph-name="cedilla" unicode="&#xb8;" horiz-adv-x="127" 
d="M42 -70v25q14 0 19.5 13t-0.5 26t-19 13h-25v64h25h25v-17q45 -15 45 -73q0 -30 -17 -53t-53 -23v25z" />
    <glyph glyph-name="ordmasculine" unicode="&#xba;" horiz-adv-x="403" 
d="M74 581.5q0 -51.5 36.5 -88t88.5 -36.5t88.5 36.5t36.5 88t-36.5 88t-88.5 36.5t-88.5 -36.5t-36.5 -88zM12 581.5q0 77.5 55 132.5t132 55t132 -55t55 -132.5t-55 -132.5t-132 -55t-132 55t-55 132.5z" />
    <glyph glyph-name="guillemotright" unicode="&#xbb;" horiz-adv-x="710" 
d="M21 133l317 256l-317 255v93l432 -348l-432 -348v92zM251 133l317 256l-317 255v93l432 -348l-432 -348v92z" />
    <glyph glyph-name="questiondown" unicode="&#xbf;" horiz-adv-x="472" 
d="M384 127q10 -11 30.5 -33t30.5 -33q-63 -57 -182 -57q-101 0 -170 78t-69 184q0 92 54.5 156.5t139.5 79.5v90h90l1 -176h-45q-66 0 -108 -41t-42 -109q0 -72 44.5 -122t104.5 -50q85 0 121 33zM322 709q0 -26 -17 -44.5t-40.5 -18.5t-40 18.5t-16.5 44.5t16.5 44.5
t40 18.5t40.5 -18.5t17 -44.5z" />
    <glyph glyph-name="Agrave" unicode="&#xc0;" horiz-adv-x="535" 
d="M227 812q-4 -17 -18.5 -29.5t-34.5 -7.5q-10 3 -19 11q-12 10 -13.5 23.5t2.5 22.5t10 16q27 33 60 23q39 -12 64.5 -34t33.5 -63l-25 -5l-24 -4q-4 19 -12 29t-24 18zM516 0h-93l-62 210h-197l-62 -210h-93l207 705h93zM334 303l-72 244l-71 -244h143z" />
    <glyph glyph-name="Aacute" unicode="&#xc1;" horiz-adv-x="535" 
d="M298 812q-15 -8 -23.5 -18t-11.5 -29l-25 4l-24 5q7 41 33 63t65 34q33 10 59 -23q6 -7 10.5 -16t3 -22.5t-13.5 -23.5q-9 -8 -19 -11q-20 -5 -34.5 7.5t-19.5 29.5zM516 0h-93l-62 210h-197l-62 -210h-93l207 705h93zM334 303l-72 244l-71 -244h143z" />
    <glyph glyph-name="Acircumflex" unicode="&#xc2;" horiz-adv-x="535" 
d="M181 785l-15 20l87 66q16 12 31 -1l75 -63l-16 -19l-16 -19l-60 50l-71 -54zM516 0h-93l-62 210h-197l-62 -210h-93l207 705h93zM334 303l-72 244l-71 -244h143z" />
    <glyph glyph-name="Atilde" unicode="&#xc3;" horiz-adv-x="535" 
d="M401 863q-4 -98 -75 -98q-32 0 -70 28t-52 28q-19 0 -27.5 -9.5t-13.5 -35.5h-38q2 45 20.5 72t54.5 27q31 0 70 -28.5t53 -28.5q19 0 27 9t13 36h38zM516 0h-93l-62 210h-197l-62 -210h-93l207 705h93zM334 303l-72 244l-71 -244h143z" />
    <glyph glyph-name="Adieresis" unicode="&#xc4;" horiz-adv-x="535" 
d="M291 807q0 17 11.5 29.5t27.5 12.5t27.5 -12.5t11.5 -29.5t-11.5 -29.5t-27.5 -12.5t-27.5 12.5t-11.5 29.5zM156 807q0 17 11.5 29.5t27.5 12.5t27.5 -12.5t11.5 -29.5t-11.5 -29.5t-27.5 -12.5t-27.5 12.5t-11.5 29.5zM516 0h-93l-62 210h-197l-62 -210h-93l207 705h93
zM334 303l-72 244l-71 -244h143z" />
    <glyph glyph-name="Aring" unicode="&#xc5;" horiz-adv-x="535" 
d="M235 835q0 -11 8 -19t19 -8t19 8t8 19t-8 19t-19 8t-19 -8t-8 -19zM175 835q0 36 25.5 61.5t61.5 25.5t61.5 -25.5t25.5 -61.5t-25.5 -61.5t-61.5 -25.5t-61.5 25.5t-25.5 61.5zM516 0h-93l-62 210h-197l-62 -210h-93l207 705h93zM334 303l-72 244l-71 -244h143z" />
    <glyph glyph-name="AE" unicode="&#xc6;" horiz-adv-x="769" 
d="M334 303l-72 244l-71 -244h143zM423 317v420h328v-80h-248v-254h179v-81h-179v-242h248v-80h-235h-93l-62 210h-197l-62 -210h-93l207 705h93z" />
    <glyph glyph-name="Ccedilla" unicode="&#xc7;" horiz-adv-x="663" 
d="M363 -135v25q14 0 19.5 13t-0.5 26t-19 13h-25v64h25h25v-17q45 -15 45 -73q0 -30 -17 -53t-53 -23v25zM541 260l96 -53q-17 -83 -84 -141q-78 -66 -190 -66q-142 0 -228 58q-117 89 -110 314q6 209 87 298q42 45 101 61.5t136 16.5q226 0 282 -183l4 -15
q-45 -14 -91 -27l-14 -5l-4 15q-19 59 -58.5 82t-118.5 23q-43 0 -60 -1t-43.5 -7.5t-42.5 -20.5q-62 -52 -68 -240q-6 -187 85 -235q29 -15 61.5 -19.5t81.5 -4.5q73 0 122 48q41 40 56 102z" />
    <glyph glyph-name="Egrave" unicode="&#xc8;" horiz-adv-x="373" 
d="M148 855q-4 -17 -18.5 -29.5t-34.5 -7.5q-10 3 -19 11q-12 10 -13.5 23.5t2.5 22.5t10 16q27 33 60 23q39 -12 64.5 -34t33.5 -63l-25 -5l-24 -4q-4 19 -12 29t-24 18zM348 11h-328v737h328v-80h-248v-254h179v-81h-179v-242h248v-80z" />
    <glyph glyph-name="Eacute" unicode="&#xc9;" horiz-adv-x="373" 
d="M219 855q-15 -8 -23.5 -18t-11.5 -29l-25 4l-24 5q7 41 33 63t65 34q33 10 59 -23q6 -7 10.5 -16t3 -22.5t-13.5 -23.5q-9 -8 -19 -11q-20 -5 -34.5 7.5t-19.5 29.5zM348 11h-328v737h328v-80h-248v-254h179v-81h-179v-242h248v-80z" />
    <glyph glyph-name="Ecircumflex" unicode="&#xca;" horiz-adv-x="373" 
d="M103 828l-15 20l87 66q16 12 31 -1l75 -63l-16 -19l-16 -19l-60 50l-71 -54zM348 11h-328v737h328v-80h-248v-254h179v-81h-179v-242h248v-80z" />
    <glyph glyph-name="Edieresis" unicode="&#xcb;" horiz-adv-x="373" 
d="M213 850q0 17 11.5 29.5t27.5 12.5t27.5 -12.5t11.5 -29.5t-11.5 -29.5t-27.5 -12.5t-27.5 12.5t-11.5 29.5zM78 850q0 17 11.5 29.5t27.5 12.5t27.5 -12.5t11.5 -29.5t-11.5 -29.5t-27.5 -12.5t-27.5 12.5t-11.5 29.5zM348 11h-328v737h328v-80h-248v-254h179v-81h-179
v-242h248v-80z" />
    <glyph glyph-name="Igrave" unicode="&#xcc;" horiz-adv-x="283" 
d="M100 879q-4 -17 -18.5 -29.5t-34.5 -7.5q-10 3 -19 11q-12 10 -13.5 23.5t2.5 22.5t10 16q27 33 60 23q39 -12 64.5 -34t33.5 -63l-25 -5l-24 -4q-4 19 -12 29t-24 18zM178 72h80v-72h-243v72h80v628h-80v72h243v-72h-80v-628z" />
    <glyph glyph-name="Iacute" unicode="&#xcd;" horiz-adv-x="283" 
d="M171 879q-15 -8 -23.5 -18t-11.5 -29l-25 4l-24 5q7 41 33 63t65 34q33 10 59 -23q6 -7 10.5 -16t3 -22.5t-13.5 -23.5q-9 -8 -19 -11q-20 -5 -34.5 7.5t-19.5 29.5zM178 72h80v-72h-243v72h80v628h-80v72h243v-72h-80v-628z" />
    <glyph glyph-name="Icircumflex" unicode="&#xce;" horiz-adv-x="283" 
d="M55 852l-15 20l87 66q16 12 31 -1l75 -63l-16 -19l-16 -19l-60 50l-71 -54zM178 72h80v-72h-243v72h80v628h-80v72h243v-72h-80v-628z" />
    <glyph glyph-name="Idieresis" unicode="&#xcf;" horiz-adv-x="283" 
d="M165 874q0 17 11.5 29.5t27.5 12.5t27.5 -12.5t11.5 -29.5t-11.5 -29.5t-27.5 -12.5t-27.5 12.5t-11.5 29.5zM30 874q0 17 11.5 29.5t27.5 12.5t27.5 -12.5t11.5 -29.5t-11.5 -29.5t-27.5 -12.5t-27.5 12.5t-11.5 29.5zM178 72h80v-72h-243v72h80v628h-80v72h243v-72h-80
v-628z" />
    <glyph glyph-name="Eth" unicode="&#xd0;" horiz-adv-x="637" 
d="M237 729q102 0 187.5 -49.5t134.5 -133.5t49 -181.5t-49 -181.5t-134.5 -133.5t-187.5 -49.5h-213v317h-45v98h45v314h213zM237 104q105 0 181.5 76t76.5 185t-76.5 184.5t-181.5 75.5h-101v-210h154v-98h-154v-213h101z" />
    <glyph glyph-name="Ntilde" unicode="&#xd1;" horiz-adv-x="553" 
d="M411 875q-4 -98 -75 -98q-32 0 -70 28t-52 28q-19 0 -27.5 -9.5t-13.5 -35.5h-38q2 45 20.5 72t54.5 27q31 0 70 -28.5t53 -28.5q19 0 27 9t13 36h38zM24 717h93l312 -528v528h93v-717h-93l-312 540v-540h-93v717z" />
    <glyph glyph-name="Ograve" unicode="&#xd2;" horiz-adv-x="592" 
d="M255 861q-4 -17 -18.5 -29.5t-34.5 -7.5q-10 3 -19 11q-12 10 -13.5 23.5t2.5 22.5t10 16q27 33 60 23q39 -12 64.5 -34t33.5 -63l-25 -5l-24 -4q-4 19 -12 29t-24 18zM94 375q0 -128 60.5 -213.5t136.5 -85.5t136.5 85.5t60.5 213.5t-60.5 213.5t-136.5 85.5
t-136.5 -85.5t-60.5 -213.5zM14 375q0 153 78.5 266t198.5 113t198.5 -113t78.5 -266t-78.5 -266t-198.5 -113t-198.5 113t-78.5 266z" />
    <glyph glyph-name="Oacute" unicode="&#xd3;" horiz-adv-x="592" 
d="M326 861q-15 -8 -23.5 -18t-11.5 -29l-25 4l-24 5q7 41 33 63t65 34q33 10 59 -23q6 -7 10.5 -16t3 -22.5t-13.5 -23.5q-9 -8 -19 -11q-20 -5 -34.5 7.5t-19.5 29.5zM94 375q0 -128 60.5 -213.5t136.5 -85.5t136.5 85.5t60.5 213.5t-60.5 213.5t-136.5 85.5t-136.5 -85.5
t-60.5 -213.5zM14 375q0 153 78.5 266t198.5 113t198.5 -113t78.5 -266t-78.5 -266t-198.5 -113t-198.5 113t-78.5 266z" />
    <glyph glyph-name="Ocircumflex" unicode="&#xd4;" horiz-adv-x="592" 
d="M210 834l-15 20l87 66q16 12 31 -1l75 -63l-16 -19l-16 -19l-60 50l-71 -54zM94 375q0 -128 60.5 -213.5t136.5 -85.5t136.5 85.5t60.5 213.5t-60.5 213.5t-136.5 85.5t-136.5 -85.5t-60.5 -213.5zM14 375q0 153 78.5 266t198.5 113t198.5 -113t78.5 -266t-78.5 -266
t-198.5 -113t-198.5 113t-78.5 266z" />
    <glyph glyph-name="Otilde" unicode="&#xd5;" horiz-adv-x="592" 
d="M429 912q-4 -98 -75 -98q-32 0 -70 28t-52 28q-19 0 -27.5 -9.5t-13.5 -35.5h-38q2 45 20.5 72t54.5 27q31 0 70 -28.5t53 -28.5q19 0 27 9t13 36h38zM94 375q0 -128 60.5 -213.5t136.5 -85.5t136.5 85.5t60.5 213.5t-60.5 213.5t-136.5 85.5t-136.5 -85.5t-60.5 -213.5z
M14 375q0 153 78.5 266t198.5 113t198.5 -113t78.5 -266t-78.5 -266t-198.5 -113t-198.5 113t-78.5 266z" />
    <glyph glyph-name="Odieresis" unicode="&#xd6;" horiz-adv-x="592" 
d="M319 856q0 17 11.5 29.5t27.5 12.5t27.5 -12.5t11.5 -29.5t-11.5 -29.5t-27.5 -12.5t-27.5 12.5t-11.5 29.5zM184 856q0 17 11.5 29.5t27.5 12.5t27.5 -12.5t11.5 -29.5t-11.5 -29.5t-27.5 -12.5t-27.5 12.5t-11.5 29.5zM94 375q0 -128 60.5 -213.5t136.5 -85.5
t136.5 85.5t60.5 213.5t-60.5 213.5t-136.5 85.5t-136.5 -85.5t-60.5 -213.5zM14 375q0 153 78.5 266t198.5 113t198.5 -113t78.5 -266t-78.5 -266t-198.5 -113t-198.5 113t-78.5 266z" />
    <glyph glyph-name="multiply" unicode="&#xd7;" 
d="M564 389l258 -258l-51 -52l-259 259l-258 -259l-52 52l259 258l-259 259l52 51l258 -258l259 258l51 -51z" />
    <glyph glyph-name="Oslash" unicode="&#xd8;" horiz-adv-x="592" 
d="M14 375q0 153 78.5 266t198.5 113t198.5 -113t78.5 -266t-78.5 -266t-198.5 -113t-198.5 113t-78.5 266zM149 170q28 -45 65.5 -69.5t76.5 -24.5q76 0 136.5 85.5t60.5 213.5q0 72 -21 135zM113 248l316 339q-28 41 -64.5 64t-73.5 23q-76 0 -136.5 -85.5t-60.5 -213.5
q0 -67 19 -127z" />
    <glyph glyph-name="Ugrave" unicode="&#xd9;" horiz-adv-x="547" 
d="M228 861q-4 -17 -18.5 -29.5t-34.5 -7.5q-10 3 -19 11q-12 10 -13.5 23.5t2.5 22.5t10 16q27 33 60 23q39 -12 64.5 -34t33.5 -63l-25 -5l-24 -4q-4 19 -12 29t-24 18zM471 753h45v-555q0 -95 -75 -158.5t-177 -63.5t-177 63.5t-75 158.5v555h45h45v-555q0 -52 46.5 -92
t115.5 -40t115.5 40t46.5 92v555h45z" />
    <glyph glyph-name="Uacute" unicode="&#xda;" horiz-adv-x="547" 
d="M299 861q-15 -8 -23.5 -18t-11.5 -29l-25 4l-24 5q7 41 33 63t65 34q33 10 59 -23q6 -7 10.5 -16t3 -22.5t-13.5 -23.5q-9 -8 -19 -11q-20 -5 -34.5 7.5t-19.5 29.5zM471 753h45v-555q0 -95 -75 -158.5t-177 -63.5t-177 63.5t-75 158.5v555h45h45v-555q0 -52 46.5 -92
t115.5 -40t115.5 40t46.5 92v555h45z" />
    <glyph glyph-name="Ucircumflex" unicode="&#xdb;" horiz-adv-x="547" 
d="M183 834l-15 20l87 66q16 12 31 -1l75 -63l-16 -19l-16 -19l-60 50l-71 -54zM471 753h45v-555q0 -95 -75 -158.5t-177 -63.5t-177 63.5t-75 158.5v555h45h45v-555q0 -52 46.5 -92t115.5 -40t115.5 40t46.5 92v555h45z" />
    <glyph glyph-name="Udieresis" unicode="&#xdc;" horiz-adv-x="547" 
d="M293 856q0 17 11.5 29.5t27.5 12.5t27.5 -12.5t11.5 -29.5t-11.5 -29.5t-27.5 -12.5t-27.5 12.5t-11.5 29.5zM158 856q0 17 11.5 29.5t27.5 12.5t27.5 -12.5t11.5 -29.5t-11.5 -29.5t-27.5 -12.5t-27.5 12.5t-11.5 29.5zM471 753h45v-555q0 -95 -75 -158.5t-177 -63.5
t-177 63.5t-75 158.5v555h45h45v-555q0 -52 46.5 -92t115.5 -40t115.5 40t46.5 92v555h45z" />
    <glyph glyph-name="Yacute" unicode="&#xdd;" horiz-adv-x="496" 
d="M278 861q-15 -8 -23.5 -18t-11.5 -29l-25 4l-24 5q7 41 33 63t65 34q33 10 59 -23q6 -7 10.5 -16t3 -22.5t-13.5 -23.5q-9 -8 -19 -11q-20 -5 -34.5 7.5t-19.5 29.5zM9 753h78l156 -276l156 276h78l-195 -345v-390h-78v390z" />
    <glyph glyph-name="Thorn" unicode="&#xde;" horiz-adv-x="454" 
d="M123 307h119q38 0 68 34.5t30 87t-30 87t-68 34.5h-119v-243zM242 640q80 0 134 -63.5t54 -148.5t-53.5 -148t-134.5 -63h-119v-190h-103v737h103v-124h119z" />
    <glyph glyph-name="germandbls" unicode="&#xdf;" horiz-adv-x="430" 
d="M86 55v-120h-35h-35v636q0 77 56 131t135 54q77 0 134 -63.5t57 -142.5q0 -46 -21.5 -85t-57.5 -65q35 -25 57 -69t22 -91q0 -77 -56 -131t-135 -54h-121zM86 125h121q51 0 86 34t35 81q0 48 -35.5 86.5t-85.5 38.5h-87v35v35h87q51 0 86 34t35 81q0 49 -36 92.5
t-85 43.5q-51 0 -86 -34t-35 -81v-446z" />
    <glyph glyph-name="agrave" unicode="&#xe0;" horiz-adv-x="472" 
d="M166 664q-4 -17 -18.5 -29.5t-34.5 -7.5q-10 3 -19 11q-12 10 -13.5 23.5t2.5 22.5t10 16q27 33 60 23q39 -12 64.5 -34t33.5 -63l-25 -5l-24 -4q-4 19 -12 29t-24 18zM345 380q-11 34 -39 53.5t-78.5 24.5t-122.5 -13q-13 48 -25 96l10 3q76 18 143 11.5t116 -31
t77.5 -75.5t28.5 -122v-315h-103v28q-45 -38 -118 -38q-93 0 -156 60t-63 145t63 145t156 60q67 0 111 -32zM234 313q-48 0 -82 -30.5t-34 -75.5t34 -75.5t82 -30.5t82 30.5t34 75.5t-34 75.5t-82 30.5z" />
    <glyph glyph-name="aacute" unicode="&#xe1;" horiz-adv-x="472" 
d="M237 664q-15 -8 -23.5 -18t-11.5 -29l-25 4l-24 5q7 41 33 63t65 34q33 10 59 -23q6 -7 10.5 -16t3 -22.5t-13.5 -23.5q-9 -8 -19 -11q-20 -5 -34.5 7.5t-19.5 29.5zM345 380q-11 34 -39 53.5t-78.5 24.5t-122.5 -13q-13 48 -25 96l10 3q76 18 143 11.5t116 -31
t77.5 -75.5t28.5 -122v-315h-103v28q-45 -38 -118 -38q-93 0 -156 60t-63 145t63 145t156 60q67 0 111 -32zM234 313q-48 0 -82 -30.5t-34 -75.5t34 -75.5t82 -30.5t82 30.5t34 75.5t-34 75.5t-82 30.5z" />
    <glyph glyph-name="acircumflex" unicode="&#xe2;" horiz-adv-x="472" 
d="M120 636l-15 20l87 66q16 12 31 -1l75 -63l-16 -19l-16 -19l-60 50l-71 -54zM345 380q-11 34 -39 53.5t-78.5 24.5t-122.5 -13q-13 48 -25 96l10 3q76 18 143 11.5t116 -31t77.5 -75.5t28.5 -122v-315h-103v28q-45 -38 -118 -38q-93 0 -156 60t-63 145t63 145t156 60
q67 0 111 -32zM234 313q-48 0 -82 -30.5t-34 -75.5t34 -75.5t82 -30.5t82 30.5t34 75.5t-34 75.5t-82 30.5z" />
    <glyph glyph-name="atilde" unicode="&#xe3;" horiz-adv-x="472" 
d="M340 715q-4 -98 -75 -98q-32 0 -70 28t-52 28q-19 0 -27.5 -9.5t-13.5 -35.5h-38q2 45 20.5 72t54.5 27q31 0 70 -28.5t53 -28.5q19 0 27 9t13 36h38zM345 380q-11 34 -39 53.5t-78.5 24.5t-122.5 -13q-13 48 -25 96l10 3q76 18 143 11.5t116 -31t77.5 -75.5t28.5 -122
v-315h-103v28q-45 -38 -118 -38q-93 0 -156 60t-63 145t63 145t156 60q67 0 111 -32zM234 313q-48 0 -82 -30.5t-34 -75.5t34 -75.5t82 -30.5t82 30.5t34 75.5t-34 75.5t-82 30.5z" />
    <glyph glyph-name="adieresis" unicode="&#xe4;" horiz-adv-x="472" 
d="M230 659q0 17 11.5 29.5t27.5 12.5t27.5 -12.5t11.5 -29.5t-11.5 -29.5t-27.5 -12.5t-27.5 12.5t-11.5 29.5zM95 659q0 17 11.5 29.5t27.5 12.5t27.5 -12.5t11.5 -29.5t-11.5 -29.5t-27.5 -12.5t-27.5 12.5t-11.5 29.5zM345 380q-11 34 -39 53.5t-78.5 24.5t-122.5 -13
q-13 48 -25 96l10 3q76 18 143 11.5t116 -31t77.5 -75.5t28.5 -122v-315h-103v28q-45 -38 -118 -38q-93 0 -156 60t-63 145t63 145t156 60q67 0 111 -32zM234 313q-48 0 -82 -30.5t-34 -75.5t34 -75.5t82 -30.5t82 30.5t34 75.5t-34 75.5t-82 30.5z" />
    <glyph glyph-name="aring" unicode="&#xe5;" horiz-adv-x="472" 
d="M177 704q0 -11 8 -19t19 -8t19 8t8 19t-8 19t-19 8t-19 -8t-8 -19zM117 704q0 36 25.5 61.5t61.5 25.5t61.5 -25.5t25.5 -61.5t-25.5 -61.5t-61.5 -25.5t-61.5 25.5t-25.5 61.5zM345 380q-11 34 -39 53.5t-78.5 24.5t-122.5 -13q-13 48 -25 96l10 3q76 18 143 11.5
t116 -31t77.5 -75.5t28.5 -122v-315h-103v28q-45 -38 -118 -38q-93 0 -156 60t-63 145t63 145t156 60q67 0 111 -32zM234 313q-48 0 -82 -30.5t-34 -75.5t34 -75.5t82 -30.5t82 30.5t34 75.5t-34 75.5t-82 30.5z" />
    <glyph glyph-name="ae" unicode="&#xe6;" horiz-adv-x="908" 
d="M234 313q-48 0 -82 -30.5t-34 -75.5t34 -75.5t82 -30.5t82 30.5t34 75.5t-34 75.5t-82 30.5zM345 380q-11 34 -39 53.5t-78.5 24.5t-122.5 -13q-13 48 -25 96l10 3q93 18 168 9t126.5 -53t65.5 -118q20 86 76 128t132 42q94 0 151 -65t57 -199v-75h-321q8 -42 34.5 -72.5
t56.5 -42.5t59 -12q35 0 69.5 15.5t49.5 50.5l78 -42q-18 -43 -53 -74t-73 -44.5t-77 -13.5q-73 0 -140 56t-94 148v-170h-103v28q-45 -38 -118 -38q-93 0 -156 60t-63 145t63 145t156 60q67 0 111 -32zM779 288q-1 87 -30.5 118.5t-84.5 31.5q-57 0 -90.5 -32t-34.5 -118
h240z" />
    <glyph glyph-name="ccedilla" unicode="&#xe7;" horiz-adv-x="569" 
d="M293 -153v25q14 0 19.5 13t-0.5 26t-19 13h-25v64h25h25v-17q45 -15 45 -73q0 -30 -17 -53t-53 -23v25zM554 185q-37 -93 -101 -148t-160 -55q-83 0 -148 42t-98.5 109t-33.5 146t33.5 146t98.5 109t148 42q98 0 163 -57.5t100 -152.5l-81 -46q-64 154 -180 154
q-74 0 -131 -56.5t-57 -141.5t57 -141.5t131 -56.5q112 0 178 149z" />
    <glyph glyph-name="egrave" unicode="&#xe8;" horiz-adv-x="487" 
d="M196 659q-4 -17 -18.5 -29.5t-34.5 -7.5q-10 3 -19 11q-12 10 -13.5 23.5t2.5 22.5t10 16q27 33 60 23q39 -12 64.5 -34t33.5 -63l-25 -5l-24 -4q-4 19 -12 29t-24 18zM466 110q-27 -64 -84.5 -98t-118.5 -34q-94 0 -171.5 88t-77.5 222q0 133 61 198.5t157 65.5
q94 0 151 -65t57 -199v-75h-321q8 -42 34.5 -72.5t56.5 -42.5t59 -12q35 0 69.5 15.5t49.5 50.5zM353 288q-1 87 -30.5 118.5t-84.5 31.5q-57 0 -90.5 -32t-34.5 -118h240z" />
    <glyph glyph-name="eacute" unicode="&#xe9;" horiz-adv-x="487" 
d="M267 659q-15 -8 -23.5 -18t-11.5 -29l-25 4l-24 5q7 41 33 63t65 34q33 10 59 -23q6 -7 10.5 -16t3 -22.5t-13.5 -23.5q-9 -8 -19 -11q-20 -5 -34.5 7.5t-19.5 29.5zM466 110q-27 -64 -84.5 -98t-118.5 -34q-94 0 -171.5 88t-77.5 222q0 133 61 198.5t157 65.5
q94 0 151 -65t57 -199v-75h-321q8 -42 34.5 -72.5t56.5 -42.5t59 -12q35 0 69.5 15.5t49.5 50.5zM353 288q-1 87 -30.5 118.5t-84.5 31.5q-57 0 -90.5 -32t-34.5 -118h240z" />
    <glyph glyph-name="ecircumflex" unicode="&#xea;" horiz-adv-x="487" 
d="M151 632l-15 20l87 66q16 12 31 -1l75 -63l-16 -19l-16 -19l-60 50l-71 -54zM466 110q-27 -64 -84.5 -98t-118.5 -34q-94 0 -171.5 88t-77.5 222q0 133 61 198.5t157 65.5q94 0 151 -65t57 -199v-75h-321q8 -42 34.5 -72.5t56.5 -42.5t59 -12q35 0 69.5 15.5t49.5 50.5z
M353 288q-1 87 -30.5 118.5t-84.5 31.5q-57 0 -90.5 -32t-34.5 -118h240z" />
    <glyph glyph-name="edieresis" unicode="&#xeb;" horiz-adv-x="487" 
d="M261 654q0 17 11.5 29.5t27.5 12.5t27.5 -12.5t11.5 -29.5t-11.5 -29.5t-27.5 -12.5t-27.5 12.5t-11.5 29.5zM126 654q0 17 11.5 29.5t27.5 12.5t27.5 -12.5t11.5 -29.5t-11.5 -29.5t-27.5 -12.5t-27.5 12.5t-11.5 29.5zM466 110q-27 -64 -84.5 -98t-118.5 -34
q-94 0 -171.5 88t-77.5 222q0 133 61 198.5t157 65.5q94 0 151 -65t57 -199v-75h-321q8 -42 34.5 -72.5t56.5 -42.5t59 -12q35 0 69.5 15.5t49.5 50.5zM353 288q-1 87 -30.5 118.5t-84.5 31.5q-57 0 -90.5 -32t-34.5 -118h240z" />
    <glyph glyph-name="igrave" unicode="&#xec;" horiz-adv-x="163" 
d="M45 569q-4 -17 -18.5 -29.5t-34.5 -7.5q-10 3 -19 11q-12 10 -13.5 23.5t2.5 22.5t10 16q27 33 60 23q39 -12 64.5 -34t33.5 -63l-25 -5l-24 -4q-4 19 -12 29t-24 18zM27 462h108v-462h-108v462z" />
    <glyph glyph-name="iacute" unicode="&#xed;" horiz-adv-x="163" 
d="M116 569q-15 -8 -23.5 -18t-11.5 -29l-25 4l-24 5q7 41 33 63t65 34q33 10 59 -23q6 -7 10.5 -16t3 -22.5t-13.5 -23.5q-9 -8 -19 -11q-20 -5 -34.5 7.5t-19.5 29.5zM27 462h108v-462h-108v462z" />
    <glyph glyph-name="icircumflex" unicode="&#xee;" horiz-adv-x="163" 
d="M0 542l-15 20l87 66q16 12 31 -1l75 -63l-16 -19l-16 -19l-60 50l-71 -54zM27 462h108v-462h-108v462z" />
    <glyph glyph-name="idieresis" unicode="&#xef;" horiz-adv-x="163" 
d="M109 564q0 17 11.5 29.5t27.5 12.5t27.5 -12.5t11.5 -29.5t-11.5 -29.5t-27.5 -12.5t-27.5 12.5t-11.5 29.5zM-26 564q0 17 11.5 29.5t27.5 12.5t27.5 -12.5t11.5 -29.5t-11.5 -29.5t-27.5 -12.5t-27.5 12.5t-11.5 29.5zM27 462h108v-462h-108v462z" />
    <glyph glyph-name="eth" unicode="&#xf0;" horiz-adv-x="535" 
d="M102 256q0 -73 47 -123.5t112 -50.5t112 50.5t47 123.5t-47 123.5t-112 50.5t-112 -50.5t-47 -123.5zM231 712v45q81 0 154 -42l31 33l49 -46l-26 -27q71 -67 71 -155v-264q0 -108 -72.5 -186t-176.5 -78t-176.5 78t-72.5 186t72.5 186t176.5 78q90 0 159 -61v61
q0 52 -42 91l-32 -35l-49 46l24 26q-45 19 -90 19v45z" />
    <glyph glyph-name="ntilde" unicode="&#xf1;" horiz-adv-x="530" 
d="M399 709q-4 -98 -75 -98q-32 0 -70 28t-52 28q-19 0 -27.5 -9.5t-13.5 -35.5h-38q2 45 20.5 72t54.5 27q31 0 70 -28.5t53 -28.5q19 0 27 9t13 36h38zM21 545h104v-34q57 40 134 40q105 0 174 -71.5t69 -172.5v-307h-110v307q0 56 -39.5 95t-93.5 39q-58 0 -96 -39.5
t-38 -102.5v-299h-104v545z" />
    <glyph glyph-name="ograve" unicode="&#xf2;" horiz-adv-x="595" 
d="M258 658q-4 -17 -18.5 -29.5t-34.5 -7.5q-10 3 -19 11q-12 10 -13.5 23.5t2.5 22.5t10 16q27 33 60 23q39 -12 64.5 -34t33.5 -63l-25 -5l-24 -4q-4 19 -12 29t-24 18zM108 275.5q0 -75.5 54.5 -129t131.5 -53.5t131.5 53.5t54.5 129t-54.5 129t-131.5 53.5t-131.5 -53.5
t-54.5 -129zM15 275.5q0 114.5 82 195t197 80.5t197 -80.5t82 -195t-82 -195t-197 -80.5t-197 80.5t-82 195z" />
    <glyph glyph-name="oacute" unicode="&#xf3;" horiz-adv-x="595" 
d="M329 658q-15 -8 -23.5 -18t-11.5 -29l-25 4l-24 5q7 41 33 63t65 34q33 10 59 -23q6 -7 10.5 -16t3 -22.5t-13.5 -23.5q-9 -8 -19 -11q-20 -5 -34.5 7.5t-19.5 29.5zM108 275.5q0 -75.5 54.5 -129t131.5 -53.5t131.5 53.5t54.5 129t-54.5 129t-131.5 53.5t-131.5 -53.5
t-54.5 -129zM15 275.5q0 114.5 82 195t197 80.5t197 -80.5t82 -195t-82 -195t-197 -80.5t-197 80.5t-82 195z" />
    <glyph glyph-name="ocircumflex" unicode="&#xf4;" horiz-adv-x="595" 
d="M213 631l-15 20l87 66q16 12 31 -1l75 -63l-16 -19l-16 -19l-60 50l-71 -54zM108 275.5q0 -75.5 54.5 -129t131.5 -53.5t131.5 53.5t54.5 129t-54.5 129t-131.5 53.5t-131.5 -53.5t-54.5 -129zM15 275.5q0 114.5 82 195t197 80.5t197 -80.5t82 -195t-82 -195t-197 -80.5
t-197 80.5t-82 195z" />
    <glyph glyph-name="otilde" unicode="&#xf5;" horiz-adv-x="595" 
d="M432 709q-4 -98 -75 -98q-32 0 -70 28t-52 28q-19 0 -27.5 -9.5t-13.5 -35.5h-38q2 45 20.5 72t54.5 27q31 0 70 -28.5t53 -28.5q19 0 27 9t13 36h38zM108 275.5q0 -75.5 54.5 -129t131.5 -53.5t131.5 53.5t54.5 129t-54.5 129t-131.5 53.5t-131.5 -53.5t-54.5 -129z
M15 275.5q0 114.5 82 195t197 80.5t197 -80.5t82 -195t-82 -195t-197 -80.5t-197 80.5t-82 195z" />
    <glyph glyph-name="odieresis" unicode="&#xf6;" horiz-adv-x="595" 
d="M323 653q0 17 11.5 29.5t27.5 12.5t27.5 -12.5t11.5 -29.5t-11.5 -29.5t-27.5 -12.5t-27.5 12.5t-11.5 29.5zM188 653q0 17 11.5 29.5t27.5 12.5t27.5 -12.5t11.5 -29.5t-11.5 -29.5t-27.5 -12.5t-27.5 12.5t-11.5 29.5zM108 275.5q0 -75.5 54.5 -129t131.5 -53.5
t131.5 53.5t54.5 129t-54.5 129t-131.5 53.5t-131.5 -53.5t-54.5 -129zM15 275.5q0 114.5 82 195t197 80.5t197 -80.5t82 -195t-82 -195t-197 -80.5t-197 80.5t-82 195z" />
    <glyph glyph-name="divide" unicode="&#xf7;" 
d="M170 353v72h684v-72h-684zM512 663q28 0 48 -22q17 -19 17 -44q0 -66 -66 -66t-66 67q0 65 67 65zM512 247q28 0 48 -22q17 -19 17 -44q0 -66 -66 -66t-66 67q0 65 67 65z" />
    <glyph glyph-name="oslash" unicode="&#xf8;" horiz-adv-x="595" 
d="M15 275.5q0 114.5 82 195t197 80.5t197 -80.5t82 -195t-82 -195t-197 -80.5t-197 80.5t-82 195zM201 117q43 -24 93 -24q77 0 131.5 53.5t54.5 128.5q0 59 -34 106zM141 171l245 263q-43 24 -92 24q-77 0 -131.5 -53.5t-54.5 -129.5q0 -57 33 -104z" />
    <glyph glyph-name="ugrave" unicode="&#xf9;" horiz-adv-x="499" 
d="M209 658q-4 -17 -18.5 -29.5t-34.5 -7.5q-10 3 -19 11q-12 10 -13.5 23.5t2.5 22.5t10 16q27 33 60 23q39 -12 64.5 -34t33.5 -63l-25 -5l-24 -4q-4 19 -12 29t-24 18zM422 0h-47v32q-58 -46 -130 -46q-93 0 -158.5 71t-65.5 171v281h47h46v-281q0 -59 38.5 -100.5
t92.5 -41.5t92 41.5t38 100.5v281h47h46v-281v-228h-46z" />
    <glyph glyph-name="uacute" unicode="&#xfa;" horiz-adv-x="499" 
d="M280 658q-15 -8 -23.5 -18t-11.5 -29l-25 4l-24 5q7 41 33 63t65 34q33 10 59 -23q6 -7 10.5 -16t3 -22.5t-13.5 -23.5q-9 -8 -19 -11q-20 -5 -34.5 7.5t-19.5 29.5zM422 0h-47v32q-58 -46 -130 -46q-93 0 -158.5 71t-65.5 171v281h47h46v-281q0 -59 38.5 -100.5
t92.5 -41.5t92 41.5t38 100.5v281h47h46v-281v-228h-46z" />
    <glyph glyph-name="ucircumflex" unicode="&#xfb;" horiz-adv-x="499" 
d="M163 631l-15 20l87 66q16 12 31 -1l75 -63l-16 -19l-16 -19l-60 50l-71 -54zM422 0h-47v32q-58 -46 -130 -46q-93 0 -158.5 71t-65.5 171v281h47h46v-281q0 -59 38.5 -100.5t92.5 -41.5t92 41.5t38 100.5v281h47h46v-281v-228h-46z" />
    <glyph glyph-name="udieresis" unicode="&#xfc;" horiz-adv-x="499" 
d="M273 653q0 17 11.5 29.5t27.5 12.5t27.5 -12.5t11.5 -29.5t-11.5 -29.5t-27.5 -12.5t-27.5 12.5t-11.5 29.5zM138 653q0 17 11.5 29.5t27.5 12.5t27.5 -12.5t11.5 -29.5t-11.5 -29.5t-27.5 -12.5t-27.5 12.5t-11.5 29.5zM422 0h-47v32q-58 -46 -130 -46q-93 0 -158.5 71
t-65.5 171v281h47h46v-281q0 -59 38.5 -100.5t92.5 -41.5t92 41.5t38 100.5v281h47h46v-281v-228h-46z" />
    <glyph glyph-name="yacute" unicode="&#xfd;" horiz-adv-x="577" 
d="M317 658q-15 -8 -23.5 -18t-11.5 -29l-25 4l-24 5q7 41 33 63t65 34q33 10 59 -23q6 -7 10.5 -16t3 -22.5t-13.5 -23.5q-9 -8 -19 -11q-20 -5 -34.5 7.5t-19.5 29.5zM6 549h84l189 -448l189 448h90l-309 -732h-90l78 184z" />
    <glyph glyph-name="thorn" unicode="&#xfe;" horiz-adv-x="613" 
d="M313 456q-65 0 -117 -40.5t-69 -103.5v-95q17 -64 69 -104t117 -40q78 0 134 52.5t56 134.5q0 83 -56 139.5t-134 56.5zM18 -173v927h109v-271q80 70 186 70q81 0 146 -40t100.5 -107t35.5 -146q0 -120 -80 -202.5t-202 -82.5q-106 0 -186 70v-218h-109z" />
    <glyph glyph-name="ydieresis" unicode="&#xff;" horiz-adv-x="577" 
d="M311 653q0 17 11.5 29.5t27.5 12.5t27.5 -12.5t11.5 -29.5t-11.5 -29.5t-27.5 -12.5t-27.5 12.5t-11.5 29.5zM176 653q0 17 11.5 29.5t27.5 12.5t27.5 -12.5t11.5 -29.5t-11.5 -29.5t-27.5 -12.5t-27.5 12.5t-11.5 29.5zM6 549h84l189 -448l189 448h90l-309 -732h-90
l78 184z" />
    <glyph glyph-name="dotlessi" unicode="&#x131;" horiz-adv-x="163" 
d="M27 462h108v-462h-108v462z" />
    <glyph glyph-name="OE" unicode="&#x152;" horiz-adv-x="835" 
d="M14 375q0 153 78.5 266t198.5 113q118 0 198 -112v106h328v-80h-248v-254h179v-81h-179v-242h248v-80h-328v97q-80 -112 -198 -112q-120 0 -198.5 113t-78.5 266zM94 375q0 -128 60.5 -213.5t136.5 -85.5t136.5 85.5t60.5 213.5t-60.5 213.5t-136.5 85.5t-136.5 -85.5
t-60.5 -213.5z" />
    <glyph glyph-name="oe" unicode="&#x153;" horiz-adv-x="961" 
d="M15 275.5q0 114.5 82 195t197 80.5q68 0 127 -30t98 -82q27 57 76.5 85t111.5 28q94 0 151 -65t57 -199v-75h-321q8 -42 34.5 -72.5t56.5 -42.5t59 -12q35 0 69.5 15.5t49.5 50.5l78 -42q-18 -43 -53 -74t-73 -44.5t-77 -13.5q-60 0 -118 39.5t-93 107.5
q-38 -58 -99.5 -91.5t-133.5 -33.5q-115 0 -197 80.5t-82 195zM108 275.5q0 -75.5 54.5 -129t131.5 -53.5t131.5 53.5t54.5 129t-54.5 129t-131.5 53.5t-131.5 -53.5t-54.5 -129zM828 288q-1 87 -30.5 118.5t-84.5 31.5q-57 0 -90.5 -32t-34.5 -118h240z" />
    <glyph glyph-name="Scaron" unicode="&#x160;" horiz-adv-x="535" 
d="M339 905l15 -20l-87 -66q-16 -12 -31 1l-75 63l16 19l16 19l60 -50l71 54zM419 565l-23 -2q-3 35 -49.5 65t-101.5 25q-92 -8 -95 -117q-1 -46 21 -73t86 -28h12q64 1 118 -20.5t88.5 -69.5t34.5 -114q0 -99 -72.5 -168t-173.5 -69t-173.5 69t-72.5 168h45h45
q0 -60 45.5 -103.5t110.5 -43.5t110.5 43.5t45.5 103.5q0 56 -38.5 86t-110.5 28h-16q-53 1 -92.5 19t-61.5 47t-32 61t-9 66q2 92 53 145.5t125 59.5q54 4 108.5 -14t94.5 -60t45 -98l-45 -4z" />
    <glyph glyph-name="scaron" unicode="&#x161;" horiz-adv-x="454" 
d="M313 702l15 -20l-87 -66q-16 -12 -31 1l-75 63l16 19l16 19l60 -50l71 54zM360 443l-29 -27q-43 45 -107 44q-49 0 -72 -27q-18 -22 -0.5 -42t47 -34t59.5 -20q85 -16 132 -70.5t41 -119.5q-6 -64 -59 -112.5t-129 -49.5q-61 -1 -126 28t-109 64l28 35l28 35
q43 -34 96 -55.5t95 -14.5q32 5 54.5 26.5t26.5 49.5q5 32 -18.5 59t-77.5 37q-110 22 -162 85q-32 36 -28.5 85t45.5 83q37 31 88.5 42t110 -4.5t102.5 -61.5z" />
    <glyph glyph-name="Ydieresis" unicode="&#x178;" horiz-adv-x="496" 
d="M271 856q0 17 11.5 29.5t27.5 12.5t27.5 -12.5t11.5 -29.5t-11.5 -29.5t-27.5 -12.5t-27.5 12.5t-11.5 29.5zM136 856q0 17 11.5 29.5t27.5 12.5t27.5 -12.5t11.5 -29.5t-11.5 -29.5t-27.5 -12.5t-27.5 12.5t-11.5 29.5zM9 753h78l156 -276l156 276h78l-195 -345v-390
h-78v390z" />
    <glyph glyph-name="Zcaron" unicode="&#x17d;" horiz-adv-x="565" 
d="M364 845l15 -20l-87 -66q-16 -12 -31 1l-75 63l16 19l16 19l60 -50l71 54zM27 699h510v-81l-411 -543h411v-81h-510v81l411 543h-411v81z" />
    <glyph glyph-name="zcaron" unicode="&#x17e;" horiz-adv-x="550" 
d="M352 721l15 -20l-87 -66q-16 -12 -31 1l-75 63l16 19l16 19l60 -50l71 54zM15 570h510v-114l-360 -342h360v-114h-510v114l348 342h-348v114z" />
    <glyph glyph-name="circumflex" unicode="&#x2c6;" horiz-adv-x="229" 
d="M33 657l-15 20l87 66q16 12 31 -1l75 -63l-16 -19l-16 -19l-60 50l-71 -54z" />
    <glyph glyph-name="caron" unicode="&#x2c7;" horiz-adv-x="229" 
d="M196 728l15 -20l-87 -66q-16 -12 -31 1l-75 63l16 19l16 19l60 -50l71 54z" />
    <glyph glyph-name="breve" unicode="&#x2d8;" horiz-adv-x="244" 
d="M48 770h35q0 -8 9 -16.5t25 -8.5t25 8.5t9 16.5h70q0 -41 -31.5 -68t-72.5 -27t-72.5 27t-31.5 68h35z" />
    <glyph glyph-name="dotaccent" unicode="&#x2d9;" horiz-adv-x="165" 
d="M33 658q0 20 14 34t34 14t34 -14t14 -34t-14 -34t-34 -14t-34 14t-14 34z" />
    <glyph glyph-name="ring" unicode="&#x2da;" horiz-adv-x="208" 
d="M75 678q0 -11 8 -19t19 -8t19 8t8 19t-8 19t-19 8t-19 -8t-8 -19zM15 678q0 36 25.5 61.5t61.5 25.5t61.5 -25.5t25.5 -61.5t-25.5 -61.5t-61.5 -25.5t-61.5 25.5t-25.5 61.5z" />
    <glyph glyph-name="ogonek" unicode="&#x2db;" horiz-adv-x="175" 
d="M156 -153v-35q-61 0 -102 31.5t-41 87.5t41 88t102 32v-35v-35q-73 0 -73 -50q0 -49 73 -49v-35z" />
    <glyph glyph-name="tilde" unicode="&#x2dc;" horiz-adv-x="315" 
d="M297 758q-4 -98 -75 -98q-32 0 -70 28t-52 28q-19 0 -27.5 -9.5t-13.5 -35.5h-38q2 45 20.5 72t54.5 27q31 0 70 -28.5t53 -28.5q19 0 27 9t13 36h38z" />
    <glyph glyph-name="hungarumlaut" unicode="&#x2dd;" horiz-adv-x="335" 
d="M29 658q10 36 18.5 55.5t16.5 29t16 11.5t18 2q20 0 34 -14t14 -34q-11 -36 -19 -55.5t-16 -29t-16 -11.5t-18 -2q-20 0 -34 14t-14 34zM189 658q10 36 18.5 55.5t16.5 29t16 11.5t18 2q20 0 34 -14t14 -34q-11 -37 -19.5 -57t-16 -29t-15.5 -10.5t-18 -1.5q-20 0 -34 14
t-14 34z" />
    <glyph glyph-name="Alpha" unicode="&#x391;" horiz-adv-x="535" 
d="M516 0h-93l-62 210h-197l-62 -210h-93l207 705h93zM334 303l-72 244l-71 -244h143z" />
    <glyph glyph-name="Beta" unicode="&#x392;" horiz-adv-x="453" 
d="M426 514q0 -49 -22 -91.5t-61 -71.5q39 -29 61 -71t22 -91q0 -84 -62.5 -144t-153.5 -60h-183v733h183q92 0 154 -60t62 -144zM113 634v-240h97q52 0 89 34.5t37 85t-37 85.5t-89 35h-97zM210 309h-97v-240h97q52 0 89 34.5t37 85.5t-37 85.5t-89 34.5z" />
    <glyph glyph-name="Gamma" unicode="&#x393;" horiz-adv-x="388" 
d="M18 24v693h357v-90h-270v-603h-87z" />
    <glyph glyph-name="uni0394" unicode="&#x394;" horiz-adv-x="760" 
d="M15 -3l300 747h126l300 -747h-726zM189 116h378l-189 471z" />
    <glyph glyph-name="Epsilon" unicode="&#x395;" horiz-adv-x="373" 
d="M348 11h-328v737h328v-80h-248v-254h179v-81h-179v-242h248v-80z" />
    <glyph glyph-name="Zeta" unicode="&#x396;" horiz-adv-x="565" 
d="M27 699h510v-81l-411 -543h411v-81h-510v81l411 543h-411v81z" />
    <glyph glyph-name="Eta" unicode="&#x397;" horiz-adv-x="551" 
d="M19 743h89v-309h334v309h89v-743h-89v333h-334v-333h-89v743z" />
    <glyph glyph-name="Theta" unicode="&#x398;" horiz-adv-x="592" 
d="M158 428h266v-80h-266v80zM94 375q0 -128 60.5 -213.5t136.5 -85.5t136.5 85.5t60.5 213.5t-60.5 213.5t-136.5 85.5t-136.5 -85.5t-60.5 -213.5zM14 375q0 153 78.5 266t198.5 113t198.5 -113t78.5 -266t-78.5 -266t-198.5 -113t-198.5 113t-78.5 266z" />
    <glyph glyph-name="Iota" unicode="&#x399;" horiz-adv-x="283" 
d="M178 72h80v-72h-243v72h80v628h-80v72h243v-72h-80v-628z" />
    <glyph glyph-name="Kappa" unicode="&#x39a;" horiz-adv-x="433" 
d="M18 714h87v-246l201 246h105l-270 -330l270 -363h-105l-201 261v-261h-87v693z" />
    <glyph glyph-name="Lambda" unicode="&#x39b;" horiz-adv-x="760" 
d="M378 587l-237 -590h-126l300 747h126l300 -747h-126z" />
    <glyph glyph-name="Mu" unicode="&#x39c;" horiz-adv-x="636" 
d="M108 602v-581h-83v693h82l211 -260l211 260h82v-693h-83v581l-210 -258z" />
    <glyph glyph-name="Nu" unicode="&#x39d;" horiz-adv-x="553" 
d="M24 717h93l312 -528v528h93v-717h-93l-312 540v-540h-93v717z" />
    <glyph glyph-name="Xi" unicode="&#x39e;" horiz-adv-x="607" 
d="M-1 20v97h585v-97h-585zM19 662v97h546v-97h-546zM66 359v97h452v-97h-452z" />
    <glyph glyph-name="Omicron" unicode="&#x39f;" horiz-adv-x="592" 
d="M94 375q0 -128 60.5 -213.5t136.5 -85.5t136.5 85.5t60.5 213.5t-60.5 213.5t-136.5 85.5t-136.5 -85.5t-60.5 -213.5zM14 375q0 153 78.5 266t198.5 113t198.5 -113t78.5 -266t-78.5 -266t-198.5 -113t-198.5 113t-78.5 266z" />
    <glyph glyph-name="Pi" unicode="&#x3a0;" horiz-adv-x="748" 
d="M540 672h-337v-668h-104v668h-92v95h729v-95h-92v-668h-104v668z" />
    <glyph glyph-name="Rho" unicode="&#x3a1;" horiz-adv-x="454" 
d="M242 754q80 0 134 -63.5t54 -148.5t-53.5 -148t-134.5 -63h-119v-304h-103v727h222zM123 421h119q38 0 68 34.5t30 87t-30 87t-68 34.5h-119v-243z" />
    <glyph glyph-name="uni03A2" unicode="&#x3a2;" 
 />
    <glyph glyph-name="Sigma" unicode="&#x3a3;" horiz-adv-x="583" 
d="M569 10h-552v79l295 303l-295 276v78h552v-75h-443l288 -276l-295 -311h450v-74z" />
    <glyph glyph-name="Tau" unicode="&#x3a4;" horiz-adv-x="601" 
d="M369 0h-137v631h-210v140h556v-140h-209v-631z" />
    <glyph glyph-name="Upsilon" unicode="&#x3a5;" horiz-adv-x="496" 
d="M9 753h78l156 -276l156 276h78l-195 -345v-390h-78v390z" />
    <glyph glyph-name="Phi" unicode="&#x3a6;" horiz-adv-x="775" 
d="M434 684q73 -6 133 -30q82 -33 133 -109q47 -71 47 -156q0 -87 -50 -160.5t-130 -104.5q-58 -23 -133 -30v-97h-99v97q-75 7 -133 30q-81 31 -133 109q-47 71 -47 156q0 123 92 209q80 75 221 86v97h99v-97zM434 596v-414q52 5 88 19q57 22 92 80q31 49 31 108
q0 86 -61 147q-50 50 -150 60zM335 182v414q-52 -5 -88 -19q-57 -22 -92 -80q-31 -49 -31 -108q0 -86 61 -147q50 -50 150 -60z" />
    <glyph glyph-name="Chi" unicode="&#x3a7;" horiz-adv-x="559" 
d="M537 15h-75l-188 304l-187 -304h-75l225 365l-225 364h75l187 -304l188 304h75l-225 -364z" />
    <glyph glyph-name="Psi" unicode="&#x3a8;" horiz-adv-x="763" 
d="M329 435v339h102v-339q113 19 168 111q43 72 42 228h100q-6 -190 -59 -278q-82 -133 -251 -155v-344h-102v344q-170 22 -252 158q-52 86 -58 275h100q0 -158 42 -228q55 -92 168 -111z" />
    <glyph glyph-name="uni03A9" unicode="&#x3a9;" horiz-adv-x="778" 
d="M250 101v45q-222 93 -222 301q0 148 108 246q97 88 250 88q173 0 274 -112q84 -94 84 -222q0 -163 -141 -258q-41 -27 -81 -42v-46h170v-90h-268v186q80 18 129 61q87 77 87 192q0 104 -76 174q-69 64 -178 64q-123 0 -195 -81q-59 -68 -59 -158q0 -112 88 -190
q51 -46 128 -62v-186h-268v90h170z" />
    <glyph glyph-name="alpha" unicode="&#x3b1;" horiz-adv-x="628" 
d="M602 125q-60 -128 -138 -128q-49 0 -68 35q-13 25 -18 89q-88 -124 -207 -124q-67 0 -110 47q-41 44 -41 115q0 125 99 252q94 122 201 122q116 0 116 -137q0 -12 -1 -48q-1 -15 -1 -44q57 100 79 223h96q-38 -173 -169 -345q2 -113 29 -113q30 0 66 97zM367 216
q0 120 -5 165q-8 71 -49 71q-62 0 -134 -107q-65 -98 -65 -182t67 -84q55 0 109 48q21 19 42 44q35 42 35 45z" />
    <glyph glyph-name="beta" unicode="&#x3b2;" horiz-adv-x="636" 
d="M119 -123h-109l4 13l11 39l30 110q138 503 187 614q56 128 186 128q97 0 151 -55q42 -44 42 -108q0 -151 -141 -210q98 -67 98 -173q0 -100 -74 -164q-58 -49 -143 -49q-121 0 -184 92l-12 -49q-43 -175 -46 -188zM197 190q50 -86 150 -86q62 0 97 38q39 43 39 106
q0 89 -85 118q-30 10 -113 11l15 76h11q22 -1 26 -1q52 0 94 17q96 38 96 146q0 86 -96 86q-59 0 -93 -54q-35 -58 -134 -428z" />
    <glyph glyph-name="gamma" unicode="&#x3b3;" horiz-adv-x="542" 
d="M94 -123q18 43 39 93l47 109q49 115 59 141q-17 225 -80 225q-51 0 -60 -147h-93q26 235 152 235q110 0 142 -206q49 92 114 199h115q-210 -293 -324 -649h-111z" />
    <glyph glyph-name="delta" unicode="&#x3b4;" horiz-adv-x="590" 
d="M518 583q-123 117 -198 117q-39 0 -39 -31q0 -18 49 -74q118 -135 136 -169q32 -60 32 -128q0 -139 -97 -237q-63 -64 -164 -64q-104 0 -163 67q-53 59 -53 149q0 135 99 226q70 65 147 65q15 0 44 -8q-19 21 -58 62q-70 74 -70 124q0 40 30 67q36 32 90 32
q126 0 275 -132zM288 429q-64 0 -112 -55q-60 -70 -60 -161q0 -69 40 -106q31 -29 77 -29q85 0 133 86q38 67 38 143q0 122 -116 122z" />
    <glyph glyph-name="epsilon" unicode="&#x3b5;" horiz-adv-x="464" 
d="M454 450l-62 -56q-65 61 -133 61q-84 0 -84 -60q0 -63 129 -63h15h20h28v-75q-29 0 -61 1h-17q-180 0 -180 -106q0 -31 25 -52q31 -26 71 -26q80 0 164 102l67 -55q-104 -124 -231 -124q-104 0 -153 57q-36 42 -36 93q0 104 138 156q-70 38 -70 104q0 52 39 86
q46 41 127 41q109 0 204 -84z" />
    <glyph glyph-name="zeta" unicode="&#x3b6;" horiz-adv-x="578" 
d="M68 -13q72 -31 126 -31q64 0 64 39q0 12 -10 20t-108 43q-127 45 -127 136q0 160 214 368q-18 -2 -28 -2q-92 0 -92 80q0 72 110 141l59 -61q-72 -42 -72 -68q0 -25 82 -31q115 68 230 120l49 -86q-9 -4 -29 -12q-232 -89 -359 -271q-69 -98 -69 -166q0 -44 105 -87
q99 -41 120 -62q24 -24 24 -54q0 -126 -169 -126q-61 0 -134 23z" />
    <glyph glyph-name="eta" unicode="&#x3b7;" horiz-adv-x="528" 
d="M396 -123h-110l21 83q27 105 50 192q57 214 57 258t-50 44q-93 0 -148 -212q-11 -44 -29 -110q-19 -69 -31 -121h-108l4 11l3 11q109 326 109 387q0 33 -25 33q-26 0 -66 -66l-61 49q76 98 134 98q80 0 80 -78q0 -6 -1 -16q71 94 161 94q62 0 100 -43q26 -29 26 -64
q0 -31 -38 -190q-60 -260 -74 -343z" />
    <glyph glyph-name="theta" unicode="&#x3b8;" horiz-adv-x="550" 
d="M370 781q76 0 119 -59q42 -58 42 -152q0 -163 -70 -332q-101 -241 -264 -241q-78 0 -126 53q-50 56 -50 155q0 213 110 402q100 174 239 174zM402 360h-266q-21 -90 -21 -162q0 -116 83 -116q123 0 202 272zM157 437h261q18 99 18 153q0 106 -79 106q-122 0 -200 -259z
" />
    <glyph glyph-name="iota" unicode="&#x3b9;" horiz-adv-x="306" 
d="M289 137q-61 -140 -163 -140q-54 0 -83 33q-28 32 -28 71q0 59 69 271l42 124l11 30h118q-24 -53 -93 -236q-54 -143 -54 -185q0 -26 29 -26q49 0 79 88z" />
    <glyph glyph-name="kappa" unicode="&#x3ba;" horiz-adv-x="566" 
d="M8 4q88 253 145 522h104l-22 -64l-38 -110q143 146 326 181l-10 -100q-175 -20 -332 -154q69 34 112 34q69 0 69 -98v-22q-1 -29 -1 -51q0 -65 35 -65q48 0 81 110l74 -32q-58 -158 -160 -158q-66 0 -91 47q-21 39 -21 148v17q0 51 -33 51q-29 0 -77 -31
q-18 -59 -56 -225h-105z" />
    <glyph glyph-name="lambda" unicode="&#x3bb;" horiz-adv-x="538" 
d="M10 4q223 370 301 521v22q1 44 1 52q0 104 -63 104q-37 0 -81 -45l-55 69q63 55 141 55q149 0 149 -202q0 -69 -2 -213q-1 -42 -1 -85q0 -127 13 -160q14 -38 71 -38h12l20 1v-86q-13 -1 -29 -1q-15 -1 -26 -1q-147 0 -147 181q0 72 6 200q-28 -56 -93 -175
q-36 -65 -97 -199h-120z" />
    <glyph glyph-name="uni03BC" unicode="&#x3bc;" horiz-adv-x="658" 
d="M124 -123h-110q34 82 90 286t88 363h106l-7 -23l-11 -40q-48 -165 -65 -232q-5 -21 -5 -33q0 -32 25 -63q27 -32 63 -32q80 0 138 185q45 146 62 238h105q-107 -322 -107 -384q0 -40 28 -40q31 0 54 71l68 -31q-56 -120 -134 -120q-77 0 -76 95q-70 -95 -145 -95
q-81 0 -105 95l-17 -63l-22 -89l-15 -56z" />
    <glyph glyph-name="nu" unicode="&#x3bd;" horiz-adv-x="511" 
d="M472 533q12 -81 12 -122q0 -203 -199 -326q-89 -54 -223 -88l-44 59q102 124 102 256q0 79 -82 172l88 50q89 -112 89 -187q0 -106 -76 -240q247 91 247 312q0 37 -13 91z" />
    <glyph glyph-name="xi" unicode="&#x3be;" horiz-adv-x="565" 
d="M194 340q-99 21 -99 108q0 75 107 148q-109 8 -109 73q0 67 156 112l32 -62q-9 -3 -23 -6q-70 -19 -70 -42q0 -26 64 -26q28 0 73 19q77 32 182 62l41 -82q-359 -86 -359 -197q0 -57 79 -70q111 37 192 57l36 -93q-132 -20 -244 -65q-141 -55 -141 -116q0 -32 128 -67
q117 -32 117 -107q0 -109 -147 -109q-60 0 -155 19l-1 84q92 -31 151 -31q58 0 58 37q0 26 -61 41q-116 30 -156 63q-28 23 -28 64q0 110 177 186z" />
    <glyph glyph-name="omicron" unicode="&#x3bf;" horiz-adv-x="517" 
d="M306 534q117 0 168 -96q22 -40 22 -93q0 -91 -53 -193q-81 -155 -227 -155q-98 0 -150 58q-49 55 -49 141q0 152 117 267q72 71 172 71zM301 452q-62 0 -114 -65q-71 -88 -71 -201q0 -53 32 -81q30 -26 70 -26q81 0 129 87q52 93 52 185q0 101 -98 101z" />
    <glyph glyph-name="pi" unicode="&#x3c0;" horiz-adv-x="631" 
d="M480 441q-5 -13 -12 -32q-97 -249 -97 -301q0 -31 24 -31q36 0 75 74l62 -45q-73 -109 -156 -109q-102 0 -102 88q0 35 64 215q28 78 47 130l4 11h-91l-8 -20q-100 -255 -169 -417h-109q120 225 192 421l6 16h-20q-53 -1 -78 -27q-10 -11 -30 -40l-57 40q27 43 53 65
q45 38 138 39h395l-28 -77h-103z" />
    <glyph glyph-name="rho" unicode="&#x3c1;" horiz-adv-x="610" 
d="M19 -123q42 237 88 378q91 279 283 279q86 0 143 -58q52 -52 52 -141q0 -95 -50 -183q-74 -130 -202 -130q-130 0 -166 126q-28 -114 -42 -271h-106zM385 450q-58 0 -112 -60q-67 -74 -67 -167q0 -57 41 -94q27 -23 66 -23q79 0 135 92q39 64 39 135q0 117 -102 117z" />
    <glyph glyph-name="sigma1" unicode="&#x3c2;" 
 />
    <glyph glyph-name="sigma" unicode="&#x3c3;" horiz-adv-x="628" 
d="M599 518l-7 -94q-77 6 -163 12q62 -57 62 -128q0 -142 -111 -243q-73 -68 -172 -68q-92 0 -144 57q-48 52 -48 136q0 131 86 230q54 64 118 82q64 17 209 16h170zM300 441q-59 0 -118 -69q-68 -82 -68 -186q0 -108 95 -108q64 0 119 66q68 81 68 183q0 114 -96 114z" />
    <glyph glyph-name="tau" unicode="&#x3c4;" horiz-adv-x="511" 
d="M327 438l-5 -12l-5 -12q-27 -72 -54 -141q-49 -122 -49 -156q0 -37 33 -37q37 0 75 77l71 -36q-70 -125 -160 -125q-114 0 -114 110q0 51 87 269q19 48 25 63h-23q-81 -2 -109 -37q-9 -11 -19 -27l-66 47q65 97 172 97h307l-18 -80h-148z" />
    <glyph glyph-name="upsilon" unicode="&#x3c5;" horiz-adv-x="490" 
d="M388 533q77 -100 77 -207q0 -147 -100 -249q-78 -80 -183 -80q-80 0 -128 52q-35 37 -35 80q0 50 57 168q30 62 30 85q0 44 -74 91l70 60q101 -75 101 -139q0 -41 -34 -113q-55 -114 -55 -143q0 -21 19 -37q22 -19 54 -19q62 0 115 63q65 76 65 181q0 87 -62 160z" />
    <glyph glyph-name="phi" unicode="&#x3c6;" horiz-adv-x="631" 
d="M388 751h104l-5 -16q-23 -69 -62 -198q182 -49 182 -209q0 -112 -77 -194q-82 -88 -250 -91q-20 -64 -40 -144l-5 -22h-112q31 70 70 177q-176 57 -176 209q0 147 122 230q74 51 198 54q35 113 51 204zM319 466q-79 -3 -128 -41q-80 -61 -80 -159q0 -91 106 -136
q32 97 74 243q16 54 28 93zM301 120q211 27 211 200q0 105 -111 136l-24 -81l-51 -170z" />
    <glyph glyph-name="chi" unicode="&#x3c7;" horiz-adv-x="631" 
d="M281 219q-18 143 -28 185q-10 43 -38 43t-72 -73l-72 48q71 111 146 111q82 0 109 -89q9 -30 22 -137q93 128 143 216h117l-27 -35l-111 -146q-84 -110 -104 -137l4 -22q17 -100 29 -166q11 -52 30 -52q42 0 64 85l74 -42q-58 -131 -141 -131q-52 0 -80 42
q-19 27 -46 191q-60 -85 -163 -223h-120q126 144 264 332z" />
    <glyph glyph-name="psi" unicode="&#x3c8;" horiz-adv-x="718" 
d="M360 49q-26 -110 -37 -172h-103q33 98 53 178q-44 8 -80 28q-85 47 -85 128q0 44 28 115q39 103 39 119q0 17 -19 17q-29 0 -84 -88l-67 52q93 121 178 121q83 0 83 -74q0 -25 -19 -76q-51 -142 -51 -183q0 -62 98 -79l17 71l18 70q74 299 107 475h106l-12 -46
q-34 -135 -65 -248q-56 -205 -74 -277l-11 -47q61 9 111 48q106 85 106 261q0 33 -11 71l91 21q15 -63 15 -113q0 -198 -145 -306q-79 -59 -187 -66z" />
    <glyph glyph-name="omega" unicode="&#x3c9;" horiz-adv-x="748" 
d="M220 533l67 -62q-179 -135 -179 -289q0 -97 70 -97q114 0 167 285h93q-5 -23 -11 -45q-28 -101 -28 -168q0 -34 26 -56q22 -19 49 -19q53 0 100 55q55 64 55 154q0 94 -93 179l67 63q123 -109 123 -237q0 -87 -49 -172q-74 -127 -204 -127q-111 0 -136 128
q-58 -128 -173 -128q-70 0 -109 53q-44 59 -44 137q0 178 209 346z" />
    <glyph glyph-name="uni0401" unicode="&#x401;" horiz-adv-x="373" 
d="M213 856q0 17 11.5 29.5t27.5 12.5t27.5 -12.5t11.5 -29.5t-11.5 -29.5t-27.5 -12.5t-27.5 12.5t-11.5 29.5zM78 856q0 17 11.5 29.5t27.5 12.5t27.5 -12.5t11.5 -29.5t-11.5 -29.5t-27.5 -12.5t-27.5 12.5t-11.5 29.5zM348 11h-328v737h328v-80h-248v-254h179v-81h-179
v-242h248v-80z" />
    <glyph glyph-name="uni0410" unicode="&#x410;" horiz-adv-x="535" 
d="M516 0h-93l-62 210h-197l-62 -210h-93l207 705h93zM334 303l-72 244l-71 -244h143z" />
    <glyph glyph-name="uni0411" unicode="&#x411;" horiz-adv-x="464" 
d="M118 333v-243h134q38 0 68 34.5t30 87t-30 87t-68 34.5h-134zM252 0h-237v754h425v-117h-322v-214h134q81 0 134.5 -63t53.5 -148t-54 -148.5t-134 -63.5z" />
    <glyph glyph-name="uni0412" unicode="&#x412;" horiz-adv-x="453" 
d="M426 514q0 -49 -22 -91.5t-61 -71.5q39 -29 61 -71t22 -91q0 -84 -62.5 -144t-153.5 -60h-183v733h183q92 0 154 -60t62 -144zM113 634v-240h97q52 0 89 34.5t37 85t-37 85.5t-89 35h-97zM210 309h-97v-240h97q52 0 89 34.5t37 85.5t-37 85.5t-89 34.5z" />
    <glyph glyph-name="uni0413" unicode="&#x413;" horiz-adv-x="388" 
d="M18 24v693h357v-90h-270v-603h-87z" />
    <glyph glyph-name="uni0414" unicode="&#x414;" horiz-adv-x="832" 
d="M69 -137h-45v119v45h42l288 717h126l288 -717h39v-45v-119h-45h-45v74h-603v-74h-45zM192 27h450l-225 560z" />
    <glyph glyph-name="uni0415" unicode="&#x415;" horiz-adv-x="373" 
d="M348 11h-328v737h328v-80h-248v-254h179v-81h-179v-242h248v-80z" />
    <glyph glyph-name="uni0416" unicode="&#x416;" horiz-adv-x="739" 
d="M324 714h87v-246l201 246h105l-270 -330l270 -363h-105l-201 261v-261h-87v261l-201 -261h-105l270 363l-270 330h105l201 -246v246z" />
    <glyph glyph-name="uni0417" unicode="&#x417;" horiz-adv-x="529" 
d="M33 619q43 48 99 72.5t134 24.5q102 0 161.5 -45t59.5 -132q0 -54 -26.5 -97.5t-83.5 -61.5q66 -13 102 -58.5t36 -112.5q0 -50 -19.5 -89.5t-53.5 -67t-81.5 -42.5t-102.5 -15q-77 0 -136 25.5t-105 76.5l80 96q30 -35 67.5 -55t90.5 -20t87 28t34 78q0 46 -35.5 76
t-107.5 30h-74v102h66q64 0 98 23.5t34 66.5q0 38 -25.5 58t-72.5 20t-83.5 -17.5t-64.5 -49.5z" />
    <glyph glyph-name="uni0418" unicode="&#x418;" horiz-adv-x="553" 
d="M522 717v-717h-93v540l-312 -540h-93v717h93v-528l312 528h93z" />
    <glyph glyph-name="uni0419" unicode="&#x419;" horiz-adv-x="553" 
d="M204 909h35q0 -8 9 -16.5t25 -8.5t25 8.5t9 16.5h70q0 -41 -31.5 -68t-72.5 -27t-72.5 27t-31.5 68h35zM522 717v-717h-93v540l-312 -540h-93v717h93v-528l312 528h93z" />
    <glyph glyph-name="uni041A" unicode="&#x41a;" horiz-adv-x="433" 
d="M18 714h87v-246l201 246h105l-270 -330l270 -363h-105l-201 261v-261h-87v693z" />
    <glyph glyph-name="uni041B" unicode="&#x41b;" horiz-adv-x="760" 
d="M378 587l-237 -590h-126l300 747h126l300 -747h-126z" />
    <glyph glyph-name="uni041C" unicode="&#x41c;" horiz-adv-x="636" 
d="M108 602v-581h-83v693h82l211 -260l211 260h82v-693h-83v581l-210 -258z" />
    <glyph glyph-name="uni041D" unicode="&#x41d;" horiz-adv-x="551" 
d="M19 743h89v-309h334v309h89v-743h-89v333h-334v-333h-89v743z" />
    <glyph glyph-name="uni041E" unicode="&#x41e;" horiz-adv-x="592" 
d="M94 375q0 -128 60.5 -213.5t136.5 -85.5t136.5 85.5t60.5 213.5t-60.5 213.5t-136.5 85.5t-136.5 -85.5t-60.5 -213.5zM14 375q0 153 78.5 266t198.5 113t198.5 -113t78.5 -266t-78.5 -266t-198.5 -113t-198.5 113t-78.5 266z" />
    <glyph glyph-name="uni041F" unicode="&#x41f;" horiz-adv-x="748" 
d="M540 672h-337v-668h-104v668h-92v95h729v-95h-92v-668h-104v668z" />
    <glyph glyph-name="uni0420" unicode="&#x420;" horiz-adv-x="454" 
d="M242 754q80 0 134 -63.5t54 -148.5t-53.5 -148t-134.5 -63h-119v-304h-103v727h222zM123 421h119q38 0 68 34.5t30 87t-30 87t-68 34.5h-119v-243z" />
    <glyph glyph-name="uni0421" unicode="&#x421;" horiz-adv-x="663" 
d="M541 260l96 -53q-17 -83 -84 -141q-78 -66 -190 -66q-142 0 -228 58q-117 89 -110 314q6 209 87 298q42 45 101 61.5t136 16.5q226 0 282 -183l4 -15q-45 -14 -91 -27l-14 -5l-4 15q-19 59 -58.5 82t-118.5 23q-43 0 -60 -1t-43.5 -7.5t-42.5 -20.5q-62 -52 -68 -240
q-6 -187 85 -235q29 -15 61.5 -19.5t81.5 -4.5q73 0 122 48q41 40 56 102z" />
    <glyph glyph-name="uni0422" unicode="&#x422;" horiz-adv-x="601" 
d="M369 0h-137v631h-210v140h556v-140h-209v-631z" />
    <glyph glyph-name="uni0423" unicode="&#x423;" horiz-adv-x="670" 
d="M295 301l-280 473h119l215 -371l190 371h116l-399 -770h-122z" />
    <glyph glyph-name="uni0424" unicode="&#x424;" horiz-adv-x="775" 
d="M434 684q73 -6 133 -30q82 -33 133 -109q47 -71 47 -156q0 -87 -50 -160.5t-130 -104.5q-58 -23 -133 -30v-97h-99v97q-75 7 -133 30q-81 31 -133 109q-47 71 -47 156q0 123 92 209q80 75 221 86v97h99v-97zM434 596v-414q52 5 88 19q57 22 92 80q31 49 31 108
q0 86 -61 147q-50 50 -150 60zM335 182v414q-52 -5 -88 -19q-57 -22 -92 -80q-31 -49 -31 -108q0 -86 61 -147q50 -50 150 -60z" />
    <glyph glyph-name="uni0425" unicode="&#x425;" horiz-adv-x="559" 
d="M537 15h-75l-188 304l-187 -304h-75l225 365l-225 364h75l187 -304l188 304h75l-225 -364z" />
    <glyph glyph-name="uni0426" unicode="&#x426;" horiz-adv-x="589" 
d="M431 768h45v-678h88v-207h-91v117h-42h-366h-45v45v723h45h45v-678h276v678h45z" />
    <glyph glyph-name="uni0427" unicode="&#x427;" horiz-adv-x="573" 
d="M289 394q79 0 120 27v313h139v-724h-139v282q-66 -26 -163 -26q-229 0 -229 249v219h138v-179q0 -83 29.5 -122t104.5 -39z" />
    <glyph glyph-name="uni0428" unicode="&#x428;" horiz-adv-x="866" 
d="M482 93h254v670h102v-763h-813v763h102v-670h253v670h102v-670z" />
    <glyph glyph-name="uni0429" unicode="&#x429;" horiz-adv-x="876" 
d="M849 94v-207h-82v134h-741v743h82v-670h258v670h80v-670h258v670h83v-670h62z" />
    <glyph glyph-name="uni042A" unicode="&#x42a;" horiz-adv-x="564" 
d="M233 346v-243h119q38 0 68 34.5t30 87t-30 87t-68 34.5h-119zM352 13h-222v628h-116v113h219v-318h119q81 0 134.5 -63t53.5 -148t-54 -148.5t-134 -63.5z" />
    <glyph glyph-name="uni042B" unicode="&#x42b;" horiz-adv-x="586" 
d="M559 754v-741h-103v741h103zM242 13h-222v741h103v-318h119q81 0 134.5 -63t53.5 -148t-54 -148.5t-134 -63.5zM123 346v-243h119q38 0 68 34.5t30 87t-30 87t-68 34.5h-119z" />
    <glyph glyph-name="uni042C" unicode="&#x42c;" horiz-adv-x="454" 
d="M242 13h-222v741h103v-318h119q81 0 134.5 -63t53.5 -148t-54 -148.5t-134 -63.5zM123 346v-243h119q38 0 68 34.5t30 87t-30 87t-68 34.5h-119z" />
    <glyph glyph-name="uni042D" unicode="&#x42d;" horiz-adv-x="663" 
d="M121 260q14 -62 56 -102q49 -48 122 -48q49 0 81.5 4.5t61.5 19.5q78 41 84 183h-362v104h360q-12 143 -65 188q-17 14 -43 20.5t-43 7.5t-60 1q-79 0 -119 -23t-58 -82l-4 -15l-15 5q-45 13 -91 27l5 15q55 183 282 183q76 0 135.5 -16.5t101.5 -61.5q80 -89 87 -298
q7 -225 -110 -314q-87 -58 -228 -58q-113 0 -190 66q-68 58 -84 141z" />
    <glyph glyph-name="uni042E" unicode="&#x42e;" horiz-adv-x="967" 
d="M131 442h114q9 78 40 146q88 193 305 193q171 0 265 -126q83 -112 83 -266q0 -181 -108 -296q-90 -96 -240 -96q-218 0 -305 192q-33 74 -42 160h-112v-345h-102v770h102v-332zM584 686q-111 0 -176 -90q-61 -83 -61 -207q0 -144 78 -229q63 -68 164 -68q116 0 180 89
q60 83 60 211q0 138 -77 225q-61 69 -168 69z" />
    <glyph glyph-name="uni042F" unicode="&#x42f;" horiz-adv-x="524" 
d="M238 745h271v-745h-94v303l-260 -303h-138l275 303h-54q-90 0 -154 65t-64 156t64 156t154 65zM238 397h177v254h-177q-51 0 -87.5 -37t-36.5 -90t36.5 -90t87.5 -37z" />
    <glyph glyph-name="uni0430" unicode="&#x430;" horiz-adv-x="472" 
d="M345 380q-11 34 -39 53.5t-78.5 24.5t-122.5 -13q-13 48 -25 96l10 3q76 18 143 11.5t116 -31t77.5 -75.5t28.5 -122v-315h-103v28q-45 -38 -118 -38q-93 0 -156 60t-63 145t63 145t156 60q67 0 111 -32zM234 313q-48 0 -82 -30.5t-34 -75.5t34 -75.5t82 -30.5t82 30.5
t34 75.5t-34 75.5t-82 30.5z" />
    <glyph glyph-name="uni0431" unicode="&#x431;" horiz-adv-x="608" 
d="M320 583q-63 -14 -99.5 -54t-49.5 -115q31 38 75 58.5t99 20.5q48 0 90 -19t73.5 -52t50 -78t18.5 -97q0 -54 -18.5 -101t-53 -81.5t-84.5 -54.5t-113 -20q-130 0 -197 81.5t-67 238.5q0 89 17 155.5t51.5 113t86 75.5t119.5 44l194 43l9 -113zM181 250q0 -33 10 -60
t27 -46.5t41 -30.5t53 -11q57 0 92 39.5t35 104.5q0 60 -36 97.5t-95 37.5q-56 0 -91.5 -36t-35.5 -95z" />
    <glyph glyph-name="uni0432" unicode="&#x432;" horiz-adv-x="557" 
d="M374 524q29 0 53 -10.5t41.5 -28.5t27 -42t9.5 -51q0 -34 -18 -68.5t-59 -51.5q46 -13 72.5 -44.5t26.5 -85.5q0 -72 -50 -107t-138 -35h-275v524h310zM311 305q28 0 45 16t17 46q0 25 -14.5 42.5t-43.5 17.5h-118v-122h114zM329 97q29 0 46.5 19t17.5 46q0 28 -17 46.5
t-46 18.5h-133v-130h132z" />
    <glyph glyph-name="uni0433" unicode="&#x433;" horiz-adv-x="431" 
d="M415 413h-219v-413h-133v524h352v-111z" />
    <glyph glyph-name="uni0434" unicode="&#x434;" horiz-adv-x="747" 
d="M718 116v-266h-119v150h-469v-150h-115v266h54l250 465h100l256 -465h43zM169 116h406l-206 358z" />
    <glyph glyph-name="uni0435" unicode="&#x435;" horiz-adv-x="487" 
d="M466 110q-27 -64 -84.5 -98t-118.5 -34q-94 0 -171.5 88t-77.5 222q0 133 61 198.5t157 65.5q94 0 151 -65t57 -199v-75h-321q8 -42 34.5 -72.5t56.5 -42.5t59 -12q35 0 69.5 15.5t49.5 50.5zM353 288q-1 87 -30.5 118.5t-84.5 31.5q-57 0 -90.5 -32t-34.5 -118h240z" />
    <glyph glyph-name="uni0436" unicode="&#x436;" horiz-adv-x="727" 
d="M407 336l183 183h120l-266 -259l266 -260h-120l-183 183v-183h-87v188l-194 -188h-120l277 264l-266 260h120l183 -183v183h87v-188z" />
    <glyph glyph-name="uni0437" unicode="&#x437;" horiz-adv-x="440" 
d="M34 467q39 34 85 50t94 16q35 0 66 -8.5t54.5 -25.5t37 -42.5t13.5 -58.5q0 -42 -22.5 -73.5t-63.5 -39.5q57 -11 86 -46.5t29 -88.5q0 -36 -15.5 -65.5t-42.5 -50.5t-64.5 -32.5t-81.5 -11.5q-61 0 -111 20t-81 56l64 86q20 -25 49.5 -37.5t64.5 -12.5q42 0 65.5 17
t23.5 49q0 36 -26.5 55.5t-89.5 19.5h-41v77h40q48 0 73.5 18.5t25.5 47.5q0 25 -18.5 38t-48.5 13q-26 0 -55 -11.5t-53 -33.5z" />
    <glyph glyph-name="uni0438" unicode="&#x438;" horiz-adv-x="606" 
d="M196 191l248 333h99v-524h-133v324l-245 -324h-102v524h133v-333z" />
    <glyph glyph-name="uni0439" unicode="&#x439;" horiz-adv-x="606" 
d="M196 191l248 333h99v-524h-133v324l-245 -324h-102v524h133v-333zM234 706h35q0 -8 9 -16.5t25 -8.5t25 8t9 17h70q0 -41 -31.5 -68t-72.5 -27t-72.5 27t-31.5 68h35z" />
    <glyph glyph-name="uni043A" unicode="&#x43a;" horiz-adv-x="419" 
d="M12 524h87v-188l183 183h120l-266 -259l266 -260h-120l-183 183v-183h-87v524z" />
    <glyph glyph-name="uni043B" unicode="&#x43b;" horiz-adv-x="660" 
d="M644 0h-100l-218 468l-218 -468h-100l268 575h100z" />
    <glyph glyph-name="uni043C" unicode="&#x43c;" horiz-adv-x="711" 
d="M356 245l155 279h137v-524h-128v315l-133 -236h-63l-133 236v-315h-128v524h138z" />
    <glyph glyph-name="uni043D" unicode="&#x43d;" horiz-adv-x="599" 
d="M196 326h208v198h133v-524h-133v212h-208v-212h-133v524h133v-198z" />
    <glyph glyph-name="uni043E" unicode="&#x43e;" horiz-adv-x="595" 
d="M108 275.5q0 -75.5 54.5 -129t131.5 -53.5t131.5 53.5t54.5 129t-54.5 129t-131.5 53.5t-131.5 -53.5t-54.5 -129zM15 275.5q0 114.5 82 195t197 80.5t197 -80.5t82 -195t-82 -195t-197 -80.5t-197 80.5t-82 195z" />
    <glyph glyph-name="uni043F" unicode="&#x43f;" horiz-adv-x="547" 
d="M524 571v-568h-130v469h-245v-469h-131v568h506z" />
    <glyph glyph-name="uni0440" unicode="&#x440;" horiz-adv-x="613" 
d="M18 -173v709h109v-53q80 70 186 70q81 0 146 -40t100.5 -107t35.5 -146q0 -120 -80 -202.5t-202 -82.5q-106 0 -186 70v-218h-109zM313 456q-65 0 -117 -40.5t-69 -103.5v-95q17 -64 69 -104t117 -40q78 0 134 52.5t56 134.5q0 83 -56 139.5t-134 56.5z" />
    <glyph glyph-name="uni0441" unicode="&#x441;" horiz-adv-x="569" 
d="M554 185q-37 -93 -101 -148t-160 -55q-83 0 -148 42t-98.5 109t-33.5 146t33.5 146t98.5 109t148 42q98 0 163 -57.5t100 -152.5l-81 -46q-64 154 -180 154q-74 0 -131 -56.5t-57 -141.5t57 -141.5t131 -56.5q112 0 178 149z" />
    <glyph glyph-name="uni0442" unicode="&#x442;" horiz-adv-x="448" 
d="M271 459v-457h-91v457h-165v96h420v-96h-164z" />
    <glyph glyph-name="uni0443" unicode="&#x443;" horiz-adv-x="577" 
d="M6 549h84l189 -448l189 448h90l-309 -732h-90l78 184z" />
    <glyph glyph-name="uni0444" unicode="&#x444;" horiz-adv-x="717" 
d="M428 528q63 -8 111.5 -30.5t81.5 -57.5t50 -80.5t17 -99.5q0 -110 -67.5 -180t-192.5 -85v-208h-134v207q-129 14 -197.5 84t-68.5 182q0 54 17 100t51 81t83.5 57.5t114.5 30.5v201h134v-202zM294 418q-69 -11 -102 -50.5t-33 -105.5t32 -107t103 -52v315zM428 104
q67 12 98 52t31 106q0 65 -31.5 104.5t-97.5 51.5v-314z" />
    <glyph glyph-name="uni0445" unicode="&#x445;" horiz-adv-x="559" 
d="M441 552h90l-211 -284l211 -283h-90l-167 223l-166 -223h-90l212 283l-212 284h90l166 -223z" />
    <glyph glyph-name="uni0446" unicode="&#x446;" horiz-adv-x="608" 
d="M63 524h133v-408h174v408h133v-408h86v-266h-118v150h-408v524z" />
    <glyph glyph-name="uni0447" unicode="&#x447;" horiz-adv-x="463" 
d="M446 543v-543h-94v219q-89 -27 -149 -27q-40 0 -77 15t-60 37q-50 49 -50 130v169h86v-147q0 -67 33 -98q13 -15 43 -23.5t54 -8.5q32 0 65 9.5t55 24.5v243h94z" />
    <glyph glyph-name="uni0448" unicode="&#x448;" horiz-adv-x="817" 
d="M63 0v524h133v-408h146v408h133v-408h146v408h133v-524h-691z" />
    <glyph glyph-name="uni0449" unicode="&#x449;" horiz-adv-x="859" 
d="M63 524h133v-408h146v408h133v-408h146v408h133v-408h87v-266h-119v150h-659v524z" />
    <glyph glyph-name="uni044A" unicode="&#x44a;" horiz-adv-x="538" 
d="M217 249v-146h119q44 0 68 20.5t25 49.5q1 31 -23.5 53.5t-69.5 22.5h-119zM336 13h-222v440h-102v97h205v-211h119q86 0 135 -49.5t49 -116.5q-1 -66 -49 -113t-135 -47z" />
    <glyph glyph-name="uni044B" unicode="&#x44b;" horiz-adv-x="576" 
d="M559 550v-537h-103v537h103zM242 13h-222v537h103v-211h119q88 0 137 -51t47 -119q-2 -64 -50 -110t-134 -46zM123 249v-146h119q47 0 71.5 23.5t21.5 54.5q-2 28 -26.5 48t-66.5 20h-119z" />
    <glyph glyph-name="uni044C" unicode="&#x44c;" horiz-adv-x="444" 
d="M242 13h-222v537h103v-211h119q86 0 135 -49.5t49 -116.5q-1 -66 -49 -113t-135 -47zM123 249v-146h119q44 0 68 20.5t25 49.5q1 31 -23.5 53.5t-69.5 22.5h-119z" />
    <glyph glyph-name="uni044D" unicode="&#x44d;" horiz-adv-x="569" 
d="M15 373q36 92 100.5 147.5t159.5 55.5q84 0 149 -42t98.5 -109t33.5 -146t-33.5 -146t-98.5 -109t-149 -42q-97 0 -162 57t-100 153l81 46q64 -155 179 -155q64 0 116.5 43t67.5 111h-230v80h232q-12 72 -66 117.5t-120 45.5q-112 0 -178 -149z" />
    <glyph glyph-name="uni044E" unicode="&#x44e;" horiz-adv-x="785" 
d="M265 324q8 48 29.5 87t53 66.5t72 42t87.5 14.5q56 0 102 -20.5t78.5 -56.5t50 -86.5t17.5 -110.5q0 -63 -19 -113.5t-52 -85t-78.5 -53t-99.5 -18.5q-50 0 -91 15.5t-72.5 44t-52 68.5t-27.5 90h-68v-208h-133v524h133v-200h70zM388 262q0 -78 31.5 -116.5t85.5 -38.5
q57 0 89 40.5t32 115.5q0 76 -33 115t-87 39q-56 0 -87 -40.5t-31 -114.5z" />
    <glyph glyph-name="uni044F" unicode="&#x44f;" horiz-adv-x="539" 
d="M152 199q-47 17 -74 54t-27 97q0 40 14 72.5t39 55t59.5 35t74.5 12.5h238v-525h-132v177h-71l-109 -177h-144zM344 279v140h-90q-26 0 -47 -18.5t-21 -52.5q0 -32 19.5 -50.5t46.5 -18.5h92z" />
    <glyph glyph-name="uni0451" unicode="&#x451;" horiz-adv-x="487" 
d="M466 110q-27 -64 -84.5 -98t-118.5 -34q-94 0 -171.5 88t-77.5 222q0 133 61 198.5t157 65.5q94 0 151 -65t57 -199v-75h-321q8 -42 34.5 -72.5t56.5 -42.5t59 -12q35 0 69.5 15.5t49.5 50.5zM353 288q-1 87 -30.5 118.5t-84.5 31.5q-57 0 -90.5 -32t-34.5 -118h240z
M260 654q0 17 11.5 29.5t28 12.5t27.5 -12.5t11 -29.5t-11 -29.5t-27.5 -12.5t-28 12.5t-11.5 29.5zM126 654q0 17 11 29.5t27.5 12.5t28 -12.5t11.5 -29.5t-11.5 -29.5t-28 -12.5t-27.5 12.5t-11 29.5z" />
    <glyph glyph-name="uni2010" unicode="&#x2010;" 
d="M394 353v72h236v-72h-236z" />
    <glyph glyph-name="endash" unicode="&#x2013;" horiz-adv-x="496" 
d="M15 360v105h464v-105h-464z" />
    <glyph glyph-name="emdash" unicode="&#x2014;" horiz-adv-x="658" 
d="M15 360v105h618v-105h-618z" />
    <glyph glyph-name="uni2015" unicode="&#x2015;" 
d="M41 353v72h942v-72h-942z" />
    <glyph glyph-name="quoteleft" unicode="&#x2018;" horiz-adv-x="220" 
d="M73 611q8 17 24 28t35 11q27 0 46.5 -20.5t19.5 -48.5t-19.5 -48.5t-46.5 -20.5q-49 0 -82 39.5t-33 93.5t33 93.5t82 39.5v-50q-26 0 -45.5 -23.5t-19.5 -59.5q0 -18 6 -34z" />
    <glyph glyph-name="quoteright" unicode="&#x2019;" horiz-adv-x="220" 
d="M142 679q-8 -17 -24 -28t-35 -11q-27 0 -46.5 20.5t-19.5 48.5t19.5 48.5t46.5 20.5q49 0 82 -39.5t33 -93.5t-33 -93.5t-82 -39.5v50q26 0 45.5 23.5t19.5 59.5q0 18 -6 34z" />
    <glyph glyph-name="quotesinglbase" unicode="&#x201a;" horiz-adv-x="220" 
d="M143 57q-8 -17 -24 -28t-35 -11q-27 0 -46.5 20.5t-19.5 48.5t19.5 48.5t46.5 20.5q49 0 82 -39.5t33 -93.5t-33 -93.5t-82 -39.5v50q26 0 45.5 23.5t19.5 59.5q0 18 -6 34z" />
    <glyph glyph-name="quotedblleft" unicode="&#x201c;" horiz-adv-x="394" 
d="M247 611q8 17 24 28t35 11q27 0 46.5 -20.5t19.5 -48.5t-19.5 -48.5t-46.5 -20.5q-49 0 -82 39.5t-33 93.5t33 93.5t82 39.5v-50q-26 0 -45.5 -23.5t-19.5 -59.5q0 -18 6 -34zM70 578q8 17 24 28t35 11q27 0 46.5 -20.5t19.5 -48.5t-19.5 -48.5t-46.5 -20.5
q-49 0 -82 39.5t-33 93.5t33 93.5t82 39.5v-50q-26 0 -45.5 -23.5t-19.5 -59.5q0 -18 6 -34z" />
    <glyph glyph-name="quotedblright" unicode="&#x201d;" horiz-adv-x="394" 
d="M139 646q-8 -17 -24 -28t-35 -11q-27 0 -46.5 20.5t-19.5 48.5t19.5 48.5t46.5 20.5q49 0 82 -39.5t33 -93.5t-33 -93.5t-82 -39.5v50q26 0 45.5 23.5t19.5 59.5q0 18 -6 34zM316 679q-8 -17 -24 -28t-35 -11q-27 0 -46.5 20.5t-19.5 48.5t19.5 48.5t46.5 20.5
q49 0 82 -39.5t33 -93.5t-33 -93.5t-82 -39.5v50q26 0 45.5 23.5t19.5 59.5q0 18 -6 34z" />
    <glyph glyph-name="quotedblbase" unicode="&#x201e;" horiz-adv-x="394" 
d="M140 21q-8 -17 -24 -28t-35 -11q-27 0 -46.5 20.5t-19.5 48.5t19.5 48.5t46.5 20.5q49 0 82 -39.5t33 -93.5t-33 -93.5t-82 -39.5v50q26 0 45.5 23.5t19.5 59.5q0 18 -6 34zM317 54q-8 -17 -24 -28t-35 -11q-27 0 -46.5 20.5t-19.5 48.5t19.5 48.5t46.5 20.5
q49 0 82 -39.5t33 -93.5t-33 -93.5t-82 -39.5v50q26 0 45.5 23.5t19.5 59.5q0 18 -6 34z" />
    <glyph glyph-name="dagger" unicode="&#x2020;" 
d="M767 541h-206v-610h-97v610h-207v93h207v213h97v-213h206v-93z" />
    <glyph glyph-name="daggerdbl" unicode="&#x2021;" 
d="M760 653h-201v-241h-94v241h-202v85h202v122h94v-122h201v-85zM760 125v-85h-201v-122h-94v122h-202v85h202v241h94v-241h201z" />
    <glyph glyph-name="bullet" unicode="&#x2022;" horiz-adv-x="414" 
d="M24 352q0 38 14 71.5t39 58t58 39t71 14.5t71.5 -14.5t58 -39t39 -58t14.5 -71.5t-14.5 -71t-39 -58t-58 -39t-71.5 -14t-71 14t-58 39t-39 58t-14 71z" />
    <glyph glyph-name="twodotenleader" unicode="&#x2025;" 
d="M257 462q31 0 53 -24q19 -21 19 -49q0 -33 -24 -55q-21 -19 -50 -19q-32 0 -54 24q-19 21 -19 50q0 32 24 54q21 19 51 19zM769 462q31 0 53 -24q19 -21 19 -49q0 -33 -24 -55q-21 -19 -50 -19q-32 0 -54 24q-19 21 -19 50q0 32 24 54q21 19 51 19z" />
    <glyph glyph-name="ellipsis" unicode="&#x2026;" horiz-adv-x="561" 
d="M392 75q0 31 22 53t53 22t53 -22t22 -53t-22 -53t-53 -22t-53 22t-22 53zM205 75q0 31 22 53t53 22t53 -22t22 -53t-22 -53t-53 -22t-53 22t-22 53zM18 75q0 31 22 53t53 22t53 -22t22 -53t-22 -53t-53 -22t-53 22t-22 53z" />
    <glyph glyph-name="perthousand" unicode="&#x2030;" horiz-adv-x="991" 
d="M567 705l-270 -732h-105l270 732h105zM18 546q0 69 47 118.5t115 49.5t115 -49.5t47 -118.5t-47 -118.5t-115 -49.5t-115 49.5t-47 118.5zM108 546q0 -33 21.5 -55.5t50.5 -22.5t50.5 22.5t21.5 55.5t-21.5 55.5t-50.5 22.5t-50.5 -22.5t-21.5 -55.5zM414 150
q0 69 47 118.5t115 49.5q69 0 117 -52q48 52 117 52q68 0 115 -49.5t47 -118.5t-47 -118.5t-115 -49.5q-69 0 -117 52q-48 -52 -117 -52q-68 0 -115 49.5t-47 118.5zM504 150q0 -33 21.5 -55.5t50.5 -22.5t50.5 22.5t21.5 55.5t-21.5 55.5t-50.5 22.5t-50.5 -22.5
t-21.5 -55.5zM738 150q0 -33 21.5 -55.5t50.5 -22.5t50.5 22.5t21.5 55.5t-21.5 55.5t-50.5 22.5t-50.5 -22.5t-21.5 -55.5z" />
    <glyph glyph-name="minute" unicode="&#x2032;" 
d="M41 591l107 269l83 -37l-149 -250z" />
    <glyph glyph-name="second" unicode="&#x2033;" 
d="M41 590l101 270l85 -35l-145 -252zM203 591l107 269l83 -37l-149 -250z" />
    <glyph glyph-name="guilsinglleft" unicode="&#x2039;" horiz-adv-x="512" 
d="M465 645l-317 -256l317 -255v-93l-432 348l432 348v-92z" />
    <glyph glyph-name="guilsinglright" unicode="&#x203a;" horiz-adv-x="512" 
d="M33 133l317 256l-317 255v93l432 -348l-432 -348v92z" />
    <glyph glyph-name="uni203B" unicode="&#x203b;" 
d="M512 341l-351 -351l-49 48l352 351l-352 351l49 48l351 -351l351 351l48 -48l-351 -351l351 -351l-48 -48zM513 163q40 0 68 -31q24 -27 24 -62q0 -42 -31 -70q-27 -24 -63 -24q-41 0 -69 31q-24 27 -24 62q0 45 34 72q27 22 61 22zM513 801q40 0 68 -31q24 -27 24 -62
q0 -42 -31 -70q-27 -24 -63 -24q-41 0 -69 31q-24 27 -24 62q0 45 34 72q26 22 61 22zM833 483q40 0 68 -31q24 -27 24 -62q0 -42 -31 -70q-27 -24 -63 -24q-41 0 -69 31q-24 27 -24 63q0 40 31 69q26 24 64 24zM194 483q40 0 68 -31q24 -27 24 -62q0 -42 -31 -70
q-27 -24 -62 -24q-42 0 -70 31q-24 27 -24 62q0 55 47 81q22 13 48 13z" />
    <glyph glyph-name="exclamdbl" unicode="&#x203c;" 
d="M680 -29v115h115v-115h-115zM669 807h138l-30 -637h-78zM230 -29v115h115v-115h-115zM218 807h137l-29 -637h-79z" />
    <glyph glyph-name="uni2047" unicode="&#x2047;" 
d="M51 545q9 269 220 269q84 0 139 -44q74 -60 74 -164q0 -84 -75 -164l-51 -54q-47 -52 -48 -159v-48h-88v58q1 135 74 209l40 42q49 53 49 110q0 126 -116 126q-76 0 -106 -70q-13 -31 -16 -111h-96zM211 -29v115h115v-115h-115zM540 545q8 269 219 269q84 0 139 -45
q74 -59 74 -163q0 -84 -75 -164l-50 -54q-47 -52 -48 -159v-48h-88v58q1 135 73 209l40 42q50 53 50 111q0 125 -116 125q-77 0 -106 -70q-14 -31 -17 -111h-95zM699 -29v115h115v-115h-115z" />
    <glyph glyph-name="uni2048" unicode="&#x2048;" 
d="M71 545q10 269 249 269q96 0 159 -44q83 -60 83 -165q0 -84 -72 -156l-78 -78q-50 -53 -49 -142v-48h-94v59q1 108 73 188l64 66q54 55 54 111q0 61 -49 95q-36 25 -92 25q-144 0 -148 -180h-100zM261 -29v115h115v-115h-115zM739 -29v115h115v-115h-115zM728 807h137
l-29 -637h-79z" />
    <glyph glyph-name="uni2049" unicode="&#x2049;" 
d="M459 545q10 269 250 269q96 0 158 -45q84 -59 84 -164q0 -83 -73 -156l-78 -78q-50 -53 -49 -142v-48h-93v59q0 108 72 188l64 66q54 55 54 111q0 61 -49 95q-36 25 -91 25q-145 0 -149 -180h-100zM649 -29v115h115v-115h-115zM170 -29v115h115v-115h-115zM159 807h137
l-29 -637h-79z" />
    <glyph glyph-name="Euro" unicode="&#x20ac;" horiz-adv-x="608" 
d="M507 244l22 -1l45 -2q-6 -100 -86.5 -167t-181.5 -59q-42 4 -72 10.5t-64.5 23.5t-58 44t-42.5 73.5t-28 109.5h-30v77h24q-1 16 -1 34v42h-23v77h30q10 74 35.5 125.5t63 78t78.5 38t92 11.5q56 0 102 -13t85 -42t61 -83t22 -129h-45h-45q0 57 -11 92.5t-36.5 54
t-55.5 24.5t-77 6q-32 0 -51.5 -2t-44 -10.5t-39 -25.5t-27 -48.5t-18.5 -76.5h266v-77h-272v-42q0 -18 1 -34h271v-77h-266q3 -26 8 -47.5t10.5 -37.5t14.5 -28t15.5 -20.5t19.5 -15t21 -9.5t24 -6t25.5 -3.5t28.5 -2.5q11 -1 17 -1q63 -5 115 37.5t55 102.5z" />
    <glyph glyph-name="uni2103" unicode="&#x2103;" 
d="M948 541h-103q-31 164 -186 164q-123 0 -184 -106q-49 -85 -49 -205q0 -125 52 -217q59 -104 185 -104q167 0 200 222h100q-37 -315 -298 -315q-192 0 -277 151q-64 112 -64 263q0 155 72 261q97 143 267 143q237 0 285 -257zM197 860q60 0 103 -47q36 -40 36 -94
q0 -63 -47 -105q-40 -36 -94 -36q-63 0 -105 47q-36 40 -36 95q0 61 47 104q40 36 96 36zM194 803q-36 0 -61 -28q-22 -24 -22 -56q0 -37 28 -62q24 -22 56 -22q37 0 62 28q22 24 22 57q0 36 -28 61q-24 22 -57 22z" />
    <glyph glyph-name="uni2116" unicode="&#x2116;" 
d="M167 800l208 -660v660h80v-822h-96l-211 660v-660h-80v822h99zM693 586q164 0 164 -311t-166 -311q-165 0 -165 312q0 310 167 310zM691 507q-83 0 -83 -232t84 -232q83 0 83 235q0 229 -84 229zM983 73v-95h-94v95h94z" />
    <glyph glyph-name="uni2121" unicode="&#x2121;" 
d="M741 799h88v-736h153v-85h-241v821zM363 715h-116v-736h-88v736h-118v85h322v-85zM415 -22v822h261v-82h-176v-276h156v-82h-156v-300h181v-82h-266z" />
    <glyph glyph-name="trademark" unicode="&#x2122;" horiz-adv-x="622" 
d="M254 746q0 41 41 41h194q11 0 24 -5.5t18 -25.5l60 -217q1 -4 1.5 -7t0.5 -6q0 -19 -13.5 -29t-30.5 -10q-12 0 -22.5 7.5t-14.5 23.5l-52 186h-16v-174q0 -20 -12 -30.5t-29 -10.5t-29 10.5t-12 30.5v174h-26v-174q0 -20 -12 -30.5t-29 -10.5t-29 10.5t-12 30.5v216z
M178 531q0 -20 -12.5 -30.5t-29.5 -10.5q-16 0 -28.5 10.5t-12.5 30.5v174h-29q-19 0 -30 12.5t-11 29.5t11 29.5t30 12.5h140q19 0 30 -12.5t11 -29.5t-11 -29.5t-30 -12.5h-28v-174z" />
    <glyph glyph-name="uni212B" unicode="&#x212b;" 
d="M328 126l-85 -181h-105l318 657h112l318 -657h-105l-85 181h-368zM365 208h294l-147 312zM514 901q54 0 92 -42q33 -36 33 -85q0 -56 -42 -94q-37 -33 -85 -33q-56 0 -94 42q-33 36 -33 86q0 55 42 93q36 33 87 33zM511 843q-28 0 -48 -20.5t-20 -48.5q0 -31 23 -51
q19 -18 46 -18q29 0 49 20t20 49q0 69 -70 69z" />
    <glyph glyph-name="uni2160" unicode="&#x2160;" horiz-adv-x="283" 
d="M178 72h80v-72h-243v72h80v628h-80v72h243v-72h-80v-628z" />
    <glyph glyph-name="uni2161" unicode="&#x2161;" horiz-adv-x="566" 
d="M178 72h80v-72h-243v72h80v628h-80v72h243v-72h-80v-628zM461 72h80v-72h-243v72h80v628h-80v72h243v-72h-80v-628z" />
    <glyph glyph-name="uni2162" unicode="&#x2162;" horiz-adv-x="849" 
d="M178 72h80v-72h-243v72h80v628h-80v72h243v-72h-80v-628zM461 72h80v-72h-243v72h80v628h-80v72h243v-72h-80v-628zM744 72h80v-72h-243v72h80v628h-80v72h243v-72h-80v-628z" />
    <glyph glyph-name="uni2163" unicode="&#x2163;" horiz-adv-x="1043" 
d="M178 72h80v-72h-243v72h80v628h-80v72h243v-72h-80v-628zM661 154l237 590h126l-300 -747h-126l-300 747h126z" />
    <glyph glyph-name="uni2164" unicode="&#x2164;" horiz-adv-x="760" 
d="M378 154l237 590h126l-300 -747h-126l-300 747h126z" />
    <glyph glyph-name="uni2165" unicode="&#x2165;" horiz-adv-x="1043" 
d="M378 154l237 590h126l-300 -747h-126l-300 747h126zM938 72h80v-72h-243v72h80v628h-80v72h243v-72h-80v-628z" />
    <glyph glyph-name="uni2166" unicode="&#x2166;" horiz-adv-x="1326" 
d="M378 154l237 590h126l-300 -747h-126l-300 747h126zM938 72h80v-72h-243v72h80v628h-80v72h243v-72h-80v-628zM1221 72h80v-72h-243v72h80v628h-80v72h243v-72h-80v-628z" />
    <glyph glyph-name="uni2167" unicode="&#x2167;" horiz-adv-x="1609" 
d="M378 154l237 590h126l-300 -747h-126l-300 747h126zM938 72h80v-72h-243v72h80v628h-80v72h243v-72h-80v-628zM1221 72h80v-72h-243v72h80v628h-80v72h243v-72h-80v-628zM1504 72h80v-72h-243v72h80v628h-80v72h243v-72h-80v-628z" />
    <glyph glyph-name="uni2168" unicode="&#x2168;" horiz-adv-x="842" 
d="M178 72h80v-72h-243v72h80v628h-80v72h243v-72h-80v-628zM820 15h-75l-187 304l-188 -304h-75l225 365l-225 364h75l188 -304l187 304h75l-225 -364z" />
    <glyph glyph-name="uni2169" unicode="&#x2169;" horiz-adv-x="559" 
d="M537 15h-75l-188 304l-187 -304h-75l225 365l-225 364h75l187 -304l188 304h75l-225 -364z" />
    <glyph glyph-name="uni2170" unicode="&#x2170;" horiz-adv-x="163" 
d="M27 600.5q0 23.5 15.5 40t38.5 16.5t38.5 -16.5t15.5 -40t-15.5 -40t-38.5 -16.5t-38.5 16.5t-15.5 40zM27 462h108v-462h-108v462z" />
    <glyph glyph-name="uni2171" unicode="&#x2171;" horiz-adv-x="326" 
d="M27 600.5q0 23.5 15.5 40t38.5 16.5t38.5 -16.5t15.5 -40t-15.5 -40t-38.5 -16.5t-38.5 16.5t-15.5 40zM27 462h108v-462h-108v462zM190 600.5q0 23.5 15.5 40t38.5 16.5t38.5 -16.5t15.5 -40t-15.5 -40t-38.5 -16.5t-38.5 16.5t-15.5 40zM190 462h108v-462h-108v462z
" />
    <glyph glyph-name="uni2172" unicode="&#x2172;" horiz-adv-x="489" 
d="M27 600.5q0 23.5 15.5 40t38.5 16.5t38.5 -16.5t15.5 -40t-15.5 -40t-38.5 -16.5t-38.5 16.5t-15.5 40zM27 462h108v-462h-108v462zM190 600.5q0 23.5 15.5 40t38.5 16.5t38.5 -16.5t15.5 -40t-15.5 -40t-38.5 -16.5t-38.5 16.5t-15.5 40zM190 462h108v-462h-108v462z
M353 600.5q0 23.5 15.5 40t38.5 16.5t38.5 -16.5t15.5 -40t-15.5 -40t-38.5 -16.5t-38.5 16.5t-15.5 40zM353 462h108v-462h-108v462z" />
    <glyph glyph-name="uni2173" unicode="&#x2173;" horiz-adv-x="823" 
d="M27 600.5q0 23.5 15.5 40t38.5 16.5t38.5 -16.5t15.5 -40t-15.5 -40t-38.5 -16.5t-38.5 16.5t-15.5 40zM27 462h108v-462h-108v462zM171 575h100l218 -468l218 468h100l-268 -575h-100z" />
    <glyph glyph-name="uni2174" unicode="&#x2174;" horiz-adv-x="660" 
d="M8 575h100l218 -468l218 468h100l-268 -575h-100z" />
    <glyph glyph-name="uni2175" unicode="&#x2175;" horiz-adv-x="823" 
d="M8 575h100l218 -468l218 468h100l-268 -575h-100zM687 600.5q0 23.5 15.5 40t38.5 16.5t38.5 -16.5t15.5 -40t-15.5 -40t-38.5 -16.5t-38.5 16.5t-15.5 40zM687 462h108v-462h-108v462z" />
    <glyph glyph-name="uni2176" unicode="&#x2176;" horiz-adv-x="986" 
d="M8 575h100l218 -468l218 468h100l-268 -575h-100zM687 600.5q0 23.5 15.5 40t38.5 16.5t38.5 -16.5t15.5 -40t-15.5 -40t-38.5 -16.5t-38.5 16.5t-15.5 40zM687 462h108v-462h-108v462zM850 600.5q0 23.5 15.5 40t38.5 16.5t38.5 -16.5t15.5 -40t-15.5 -40t-38.5 -16.5
t-38.5 16.5t-15.5 40zM850 462h108v-462h-108v462z" />
    <glyph glyph-name="uni2177" unicode="&#x2177;" horiz-adv-x="1149" 
d="M8 575h100l218 -468l218 468h100l-268 -575h-100zM687 600.5q0 23.5 15.5 40t38.5 16.5t38.5 -16.5t15.5 -40t-15.5 -40t-38.5 -16.5t-38.5 16.5t-15.5 40zM687 462h108v-462h-108v462zM850 600.5q0 23.5 15.5 40t38.5 16.5t38.5 -16.5t15.5 -40t-15.5 -40t-38.5 -16.5
t-38.5 16.5t-15.5 40zM850 462h108v-462h-108v462zM1013 600.5q0 23.5 15.5 40t38.5 16.5t38.5 -16.5t15.5 -40t-15.5 -40t-38.5 -16.5t-38.5 16.5t-15.5 40zM1013 462h108v-462h-108v462z" />
    <glyph glyph-name="uni2178" unicode="&#x2178;" horiz-adv-x="722" 
d="M27 600.5q0 23.5 15.5 40t38.5 16.5t38.5 -16.5t15.5 -40t-15.5 -40t-38.5 -16.5t-38.5 16.5t-15.5 40zM27 462h108v-462h-108v462zM604 552h90l-212 -284l212 -283h-90l-166 223l-167 -223h-90l211 283l-211 284h90l167 -223z" />
    <glyph glyph-name="uni2179" unicode="&#x2179;" horiz-adv-x="559" 
d="M441 552h90l-211 -284l211 -283h-90l-167 223l-166 -223h-90l212 283l-212 284h90l166 -223z" />
    <glyph glyph-name="arrowleft" unicode="&#x2190;" 
d="M224 425h759v-72h-759l198 -109l-33 -53l-348 198l348 198l33 -53z" />
    <glyph glyph-name="arrowup" unicode="&#x2191;" 
d="M548 677v-759h-72v759l-109 -197l-53 32l198 348l198 -348l-54 -32z" />
    <glyph glyph-name="arrowright" unicode="&#x2192;" 
d="M800 353h-759v72h759l-197 109l32 53l348 -198l-348 -198l-32 53z" />
    <glyph glyph-name="arrowdown" unicode="&#x2193;" 
d="M476 101v759h72v-759l108 198l54 -33l-198 -348l-198 348l53 33z" />
    <glyph glyph-name="arrowdblright" unicode="&#x21d2;" 
d="M708 236h-667v72h747l90 81l-92 83h-745v72h664l-100 90v99l377 -344l-377 -344v99z" />
    <glyph glyph-name="arrowdblboth" unicode="&#x21d4;" 
d="M737 247h-451l76 -75v-105l-321 321l321 322v-105l-75 -74h449l-75 74v105l321 -322l-321 -321v105zM811 319l70 69l-72 71h-595l-72 -71l70 -69h599z" />
    <glyph glyph-name="universal" unicode="&#x2200;" 
d="M698 500l118 222h83l-387 -725l-386 725h83l118 -222h371zM659 428h-294l147 -276z" />
    <glyph glyph-name="partialdiff" unicode="&#x2202;" 
d="M308 608q76 173 244 173q214 0 214 -274q0 -153 -49 -304q-66 -206 -247 -206q-98 0 -157 64q-55 59 -55 163q0 135 87 227q68 71 161 71q94 0 160 -89q6 55 6 85q0 178 -128 178q-108 0 -155 -131zM508 436q-61 0 -102 -48q-55 -67 -55 -163q0 -144 121 -144
q83 0 126 75q50 90 50 161q0 46 -42 84q-39 35 -98 35z" />
    <glyph glyph-name="existential" unicode="&#x2203;" 
d="M783 734v-695h-536v72h464v241h-464v72h464v238h-464v72h536z" />
    <glyph glyph-name="gradient" unicode="&#x2207;" 
d="M473 4l-308 763h694l-310 -763h-76zM525 139l216 534h-431z" />
    <glyph glyph-name="element" unicode="&#x2208;" 
d="M186 354q12 -112 56 -154q52 -52 166 -51h474v-72h-485q-287 0 -287 312t287 312h485v-72h-474q-204 5 -222 -203h696v-72h-696z" />
    <glyph glyph-name="suchthat" unicode="&#x220b;" 
d="M838 426q-18 208 -221 203h-475v72h485q287 0 287 -312t-287 -312h-485v72h475q113 -1 165 51q44 42 56 154h-696v72h696z" />
    <glyph glyph-name="summation" unicode="&#x2211;" 
d="M216 11v93l302 299l-302 272v92h592v-95h-447l294 -266l-303 -301h456v-94h-592z" />
    <glyph glyph-name="radical" unicode="&#x221a;" 
d="M305 -81h-67l-112 417h-85v72h168l83 -307l283 800h449v-72h-399z" />
    <glyph glyph-name="proportional" unicode="&#x221d;" 
d="M600 389q101 -126 181 -126q32 0 71 19l33 -64q-59 -29 -107 -29q-114 0 -221 146q-116 -146 -223 -146q-90 0 -149 66q-51 56 -51 134q0 90 65 149q57 51 135 51q107 0 222 -146l1 1q45 55 63 74q67 71 157 71q50 0 108 -29l-33 -64q-38 21 -72 21q-79 0 -180 -128z
M513 389q-101 128 -179 128q-57 0 -96 -42q-32 -36 -32 -85q0 -57 42 -94q37 -33 86 -33q76 0 163 106z" />
    <glyph glyph-name="infinity" unicode="&#x221e;" 
d="M512 445q99 144 215 144q87 0 146 -65q51 -57 51 -135q0 -90 -65 -149q-57 -51 -132 -51q-118 0 -215 144q-97 -144 -216 -144q-87 0 -146 66q-51 56 -51 134q0 90 66 149q56 51 131 51q116 0 216 -144zM473 389q-94 128 -176 128q-58 0 -96 -45q-30 -35 -30 -83
q0 -57 42 -95q37 -33 84 -33q80 0 176 128zM550 389q89 -128 176 -128q55 0 94 42q32 36 32 86q0 54 -38 91t-89 37q-80 0 -169 -120z" />
    <glyph glyph-name="orthogonal" unicode="&#x221f;" 
d="M253 12v773h72v-701h469v-72h-541z" />
    <glyph glyph-name="angle" unicode="&#x2220;" 
d="M891 712l-582 -565h552v-72h-739l718 689z" />
    <glyph glyph-name="uni2225" unicode="&#x2225;" 
d="M355 -82v942h72v-942h-72zM596 -82v942h72v-942h-72z" />
    <glyph glyph-name="logicaland" unicode="&#x2227;" 
d="M792 77l-280 527l-279 -527h-83l362 682l362 -682h-82z" />
    <glyph glyph-name="logicalor" unicode="&#x2228;" 
d="M792 701h82l-362 -682l-362 682h83l279 -527z" />
    <glyph glyph-name="intersection" unicode="&#x2229;" 
d="M200 18v483q0 289 312 289q313 0 313 -289v-483h-72v471q0 124 -59 175q-61 54 -183 54q-132 0 -192 -65q-47 -51 -47 -164v-471h-72z" />
    <glyph glyph-name="union" unicode="&#x222a;" 
d="M200 760h72v-471q0 -124 59 -176q61 -53 181 -53q134 0 194 65q47 51 47 164v471h72v-483q0 -289 -313 -289q-312 0 -312 289v483z" />
    <glyph glyph-name="integral" unicode="&#x222b;" 
d="M675 670q-5 91 -66 91q-62 0 -62 -68l1 -22v-23l10 -497v-29q1 -21 1 -29q0 -73 -50 -118q-42 -38 -99 -38q-141 0 -145 172h84q3 -92 65 -92q63 0 63 86v16q-1 11 -1 21l-10 505v19q-1 15 -1 23q0 72 49 116q42 38 100 38q137 0 145 -171h-84z" />
    <glyph glyph-name="uni222C" unicode="&#x222c;" 
d="M451 670q-5 91 -65 91q-51 0 -60 -54q-2 -9 -2 -59l10 -497v-29q1 -21 1 -29q0 -73 -50 -118q-41 -38 -99 -38q-141 0 -145 172h84q3 -92 65 -92q63 0 63 86v16q-1 11 -1 21l-10 505v19v22q0 73 49 117q42 38 100 38q135 0 144 -171h-84zM899 670q-5 91 -66 91
q-62 0 -62 -68l1 -22v-23l10 -497v-18q0 -9 1 -24v-18q0 -71 -50 -116q-41 -38 -99 -38q-141 0 -145 172h84q2 -92 65 -92t63 86v16q-1 8 -1 21l-10 505v19q-1 15 -1 21q0 74 50 118q41 38 99 38q137 0 145 -171h-84z" />
    <glyph glyph-name="uni222E" unicode="&#x222e;" 
d="M550 560q27 -6 50 -19q87 -51 87 -152t-87 -152q-20 -11 -44 -17l2 -69v-29q1 -21 1 -29q0 -73 -50 -118q-42 -38 -99 -38q-141 0 -145 172h84q3 -92 65 -92q63 0 63 86v16q-1 11 -1 21l-2 78q-27 7 -50 19q-87 51 -87 152t87 152q20 12 44 18l-2 86v19q-1 15 -1 23
q0 72 49 116q42 38 100 38q137 0 145 -171h-84q-5 91 -66 91q-62 0 -62 -68l1 -22v-23zM469 499q-75 -30 -75 -110q0 -83 79 -111zM555 280q75 29 75 109q0 83 -79 111z" />
    <glyph glyph-name="therefore" unicode="&#x2234;" 
d="M218 212q31 0 53 -24q19 -21 19 -49q0 -33 -24 -55q-21 -19 -49 -19q-33 0 -55 24q-19 21 -19 50q0 32 24 54q21 19 51 19zM809 212q31 0 53 -24q19 -21 19 -49q0 -33 -24 -55q-21 -19 -50 -19q-32 0 -54 24q-19 21 -19 50q0 32 24 54q21 19 51 19zM513 713q31 0 53 -24
q19 -21 19 -49q0 -33 -24 -55q-21 -19 -49 -19q-33 0 -55 24q-19 22 -19 50q0 32 25 54q20 19 50 19z" />
    <glyph glyph-name="uni2235" unicode="&#x2235;" 
d="M218 713q31 0 53 -24q19 -21 19 -50q0 -32 -24 -54q-21 -19 -50 -19q-32 0 -54 24q-19 21 -19 50q0 32 24 54q21 19 51 19zM809 713q31 0 53 -24q19 -21 19 -50q0 -32 -24 -54q-21 -19 -50 -19q-32 0 -54 24q-19 21 -19 50q0 32 24 54q21 19 51 19zM513 212q31 0 53 -24
q19 -21 19 -49q0 -31 -21.5 -52.5t-52.5 -21.5q-32 0 -54 24q-19 22 -19 50q0 30 22 51.5t53 21.5z" />
    <glyph glyph-name="uni223D" unicode="&#x223d;" 
d="M373 482q-39 31 -80 31q-54 0 -91 -41q-31 -34 -31 -82q0 -55 40 -91q35 -32 82 -32q63 0 125 70l132 149q88 99 180 99q87 0 144 -64q50 -55 50 -132q0 -89 -64 -146q-55 -50 -133 -50q-57 0 -114 35l37 68q38 -31 79 -31q55 0 92 41q31 35 31 83q0 56 -40 92
q-35 32 -82 32q-62 0 -129 -76l-135 -153q-79 -91 -175 -91q-84 0 -142 64q-50 55 -50 132q0 89 64 146q55 50 132 50q57 0 115 -35z" />
    <glyph glyph-name="uni2252" unicode="&#x2252;" 
d="M854 335v-72h-684v72h684zM170 444v72h684v-72h-684zM306 700q28 0 48 -22q17 -19 17 -44q0 -66 -66 -66q-29 0 -49 22q-17 19 -17 44q0 66 67 66zM719 210q28 0 48 -22q17 -19 17 -44q0 -66 -66 -66t-66 67q0 65 67 65z" />
    <glyph glyph-name="notequal" unicode="&#x2260;" 
d="M625 527h229v-72h-266l-69 -131h335v-72h-373l-116 -223l-65 33l99 190h-229v72h267l68 131h-335v72h373l116 222l65 -33z" />
    <glyph glyph-name="equivalence" unicode="&#x2261;" 
d="M859 609v-72h-694v72h694zM859 241v-72h-694v72h694zM859 425v-72h-694v72h694z" />
    <glyph glyph-name="lessequal" unicode="&#x2264;" horiz-adv-x="530" 
d="M513 0v-87h-497v87h497zM474 645l-317 -256l317 -255v-93l-432 348l432 348v-92z" />
    <glyph glyph-name="greaterequal" unicode="&#x2265;" horiz-adv-x="530" 
d="M513 0v-87h-497v87h497zM42 133l317 256l-317 255v93l432 -348l-432 -348v92z" />
    <glyph glyph-name="uni2266" unicode="&#x2266;" 
d="M170 6v72h684v-72h-684zM170 146v72h684v-72h-684zM159 516l695 266v-78l-490 -188l490 -189v-77z" />
    <glyph glyph-name="uni2267" unicode="&#x2267;" 
d="M854 6h-684v72h684v-72zM854 146h-684v72h684v-72zM865 516l-695 -266v77l490 189l-490 188v78z" />
    <glyph glyph-name="uni226A" unicode="&#x226a;" 
d="M983 685l-493 -296l493 -297v-86l-628 383l628 383v-87zM668 685l-493 -296l493 -297v-86l-627 383l627 383v-87z" />
    <glyph glyph-name="uni226B" unicode="&#x226b;" 
d="M41 685v87l627 -383l-627 -383v86l493 297zM355 685v87l628 -383l-628 -383v86l493 297z" />
    <glyph glyph-name="propersubset" unicode="&#x2282;" 
d="M883 629h-471q-124 0 -175 -59q-54 -61 -54 -182q0 -132 65 -192q51 -47 164 -47h471v-72h-483q-289 0 -289 312t289 312h483v-72z" />
    <glyph glyph-name="propersuperset" unicode="&#x2283;" 
d="M141 629v72h483q289 0 289 -312t-289 -312h-483v72h471q124 0 175 59q54 61 54 180q0 134 -65 194q-51 47 -164 47h-471z" />
    <glyph glyph-name="reflexsubset" unicode="&#x2286;" 
d="M861 750v-72h-458q-123 0 -168 -52q-41 -48 -41 -147q0 -110 56 -158q44 -37 153 -37h458v-72h-471q-268 0 -268 267q0 271 268 271h471zM861 96v-72h-723v72h723z" />
    <glyph glyph-name="reflexsuperset" unicode="&#x2287;" 
d="M163 750h472q267 0 267 -271q0 -267 -267 -267h-472v72h458q118 0 163 46q46 48 46 150q0 108 -51 156q-44 42 -158 42h-458v72zM163 96h723v-72h-723v72z" />
    <glyph glyph-name="perpendicular" unicode="&#x22a5;" 
d="M476 135v602h72v-602h313v-72h-697v72h312z" />
    <glyph glyph-name="uni22BF" unicode="&#x22bf;" 
d="M872 30h-784l784 784v-784zM800 640l-538 -538h538v538z" />
    <glyph glyph-name="uni2312" unicode="&#x2312;" 
d="M51 636l-51 53q63 64 145 111q181 101 367 101q218 0 412 -129q53 -35 100 -83l-51 -53q-58 60 -132 102q-162 91 -329 91q-194 0 -369 -116q-48 -32 -92 -77z" />
    <glyph glyph-name="uni2460" unicode="&#x2460;" 
d="M366 516v95q97 36 132 112h82v-668h-89v543q-52 -58 -125 -82zM520 860q200 0 342 -156q121 -134 121 -315q0 -210 -156 -350q-134 -121 -315 -121q-210 0 -350 156q-121 134 -121 319q0 203 156 346q133 121 323 121zM505 819q-183 0 -312 -142q-111 -123 -111 -288
q0 -191 142 -319q123 -111 288 -111q192 0 320 142q110 123 110 292q0 185 -142 315q-122 111 -295 111z" />
    <glyph glyph-name="uni2461" unicode="&#x2461;" 
d="M302 68v79q326 270 326 397q0 100 -115 100q-114 0 -122 -146h-90q9 230 216 230q102 0 157 -61q43 -46 43 -115q0 -154 -298 -399h305v-85h-422zM520 860q200 0 342 -156q121 -134 121 -315q0 -210 -156 -350q-134 -121 -315 -121q-210 0 -350 156q-121 134 -121 319
q0 203 156 346q133 121 323 121zM505 819q-183 0 -312 -142q-111 -123 -111 -288q0 -191 142 -319q123 -111 288 -111q192 0 320 142q110 123 110 292q0 185 -142 315q-122 111 -295 111z" />
    <glyph glyph-name="uni2462" unicode="&#x2462;" 
d="M288 260h89q10 -132 138 -132q130 0 130 116q0 72 -49 97q-40 21 -124 21q-3 0 -29 -1h-24v76q48 -1 57 -1q151 0 151 110q0 104 -113 104q-69 0 -93 -37q-15 -24 -24 -85h-88q15 199 203 199q109 0 164 -60q40 -45 40 -112q0 -107 -116 -151q133 -36 133 -164
q0 -83 -55 -137q-54 -52 -165 -52q-209 0 -225 209zM520 860q200 0 342 -156q121 -134 121 -315q0 -210 -156 -350q-134 -121 -315 -121q-210 0 -350 156q-121 134 -121 319q0 203 156 346q133 121 323 121zM505 819q-183 0 -312 -142q-111 -123 -111 -288q0 -191 142 -319
q123 -111 288 -111q192 0 320 142q110 123 110 292q0 185 -142 315q-122 111 -295 111z" />
    <glyph glyph-name="uni2463" unicode="&#x2463;" 
d="M248 202v79l313 440h79v-439h93v-80h-93v-143h-81v143h-311zM346 282h213v299zM520 860q200 0 342 -156q121 -134 121 -315q0 -210 -156 -350q-134 -121 -315 -121q-210 0 -350 156q-121 134 -121 319q0 203 156 346q133 121 323 121zM505 819q-183 0 -312 -142
q-111 -123 -111 -288q0 -191 142 -319q123 -111 288 -111q192 0 320 142q110 123 110 292q0 185 -142 315q-122 111 -295 111z" />
    <glyph glyph-name="uni2464" unicode="&#x2464;" 
d="M289 252h90q13 -120 128 -120q134 0 134 156q0 138 -118 138q-97 0 -131 -94h-81v377h401v-85h-316v-188q63 67 143 67q191 0 191 -214q0 -126 -70 -190q-55 -51 -151 -51q-194 0 -220 204zM520 860q200 0 342 -156q121 -134 121 -315q0 -210 -156 -350
q-134 -121 -315 -121q-210 0 -350 156q-121 134 -121 319q0 203 156 346q133 121 323 121zM505 819q-183 0 -312 -142q-111 -123 -111 -288q0 -191 142 -319q123 -111 288 -111q192 0 320 142q110 123 110 292q0 185 -142 315q-122 111 -295 111z" />
    <glyph glyph-name="uni2465" unicode="&#x2465;" 
d="M735 546h-89q-13 98 -117 98q-100 0 -134 -90q-19 -51 -26 -133q84 76 172 76q93 0 149 -61q52 -57 52 -155q0 -115 -71 -178q-58 -52 -153 -52q-238 0 -238 320q0 357 245 357q195 0 210 -182zM525 421q-77 0 -125 -50q-30 -30 -30 -70q0 -56 28 -105q36 -63 120 -63
q134 0 134 150q0 138 -127 138zM520 860q200 0 342 -156q121 -134 121 -315q0 -210 -156 -350q-134 -121 -315 -121q-210 0 -350 156q-121 134 -121 319q0 203 156 346q133 121 323 121zM505 819q-183 0 -312 -142q-111 -123 -111 -288q0 -191 142 -319q123 -111 288 -111
q192 0 320 142q110 123 110 292q0 185 -142 315q-122 111 -295 111z" />
    <glyph glyph-name="uni2466" unicode="&#x2466;" 
d="M287 612v89h451v-81l-258 -576h-103l265 568h-355zM520 860q200 0 342 -156q121 -134 121 -315q0 -210 -156 -350q-134 -121 -315 -121q-210 0 -350 156q-121 134 -121 319q0 203 156 346q133 121 323 121zM505 819q-183 0 -312 -142q-111 -123 -111 -288
q0 -191 142 -319q123 -111 288 -111q192 0 320 142q110 123 110 292q0 185 -142 315q-122 111 -295 111z" />
    <glyph glyph-name="uni2467" unicode="&#x2467;" 
d="M401 409q-108 47 -108 142q0 71 55 121q60 55 166 55q119 0 176 -66q42 -49 42 -106q0 -99 -114 -146q136 -42 136 -165q0 -80 -60 -135q-62 -58 -180 -58q-132 0 -198 73q-45 50 -45 121q0 116 130 164zM509 370q-149 0 -149 -122q0 -53 36 -83q46 -39 121 -39
q148 0 148 122t-156 122zM510 652q-128 0 -128 -104q0 -47 30 -70q42 -34 101 -34q78 0 114 49q16 22 16 54q0 105 -133 105zM520 860q200 0 342 -156q121 -134 121 -315q0 -210 -156 -350q-134 -121 -315 -121q-210 0 -350 156q-121 134 -121 319q0 203 156 346
q133 121 323 121zM505 819q-183 0 -312 -142q-111 -123 -111 -288q0 -191 142 -319q123 -111 288 -111q192 0 320 142q110 123 110 292q0 185 -142 315q-122 111 -295 111z" />
    <glyph glyph-name="uni2468" unicode="&#x2468;" 
d="M290 233h88q13 -98 118 -98q97 0 131 84q17 43 28 138q-84 -75 -172 -75q-92 0 -148 61q-52 57 -52 155q0 114 71 177q58 52 151 52q239 0 239 -317q0 -359 -245 -359q-195 0 -209 182zM503 645q-131 0 -131 -150q0 -138 124 -138q81 0 128 50q30 30 30 69q0 57 -28 106
q-36 63 -123 63zM520 860q200 0 342 -156q121 -134 121 -315q0 -210 -156 -350q-134 -121 -315 -121q-210 0 -350 156q-121 134 -121 319q0 203 156 346q133 121 323 121zM505 819q-183 0 -312 -142q-111 -123 -111 -288q0 -191 142 -319q123 -111 288 -111q192 0 320 142
q110 123 110 292q0 185 -142 315q-122 111 -295 111z" />
    <glyph glyph-name="uni2469" unicode="&#x2469;" 
d="M654 711q153 0 153 -322q0 -321 -157 -321t-157 315q0 328 161 328zM648 636q-79 0 -79 -246q0 -248 81 -248t81 240q0 254 -83 254zM189 512v83q83 39 113 111h69v-635h-79v521q-41 -53 -103 -80zM520 860q200 0 342 -156q121 -134 121 -315q0 -210 -156 -350
q-134 -121 -315 -121q-210 0 -350 156q-121 134 -121 319q0 203 156 346q133 121 323 121zM505 819q-183 0 -312 -142q-111 -123 -111 -288q0 -191 142 -319q123 -111 288 -111q192 0 320 142q110 123 110 292q0 185 -142 315q-122 111 -295 111z" />
    <glyph glyph-name="uni246A" unicode="&#x246a;" 
d="M553 512v83q83 39 112 111h69v-635h-79v521q-40 -53 -102 -80zM199 512v83q83 39 113 111h69v-635h-79v521q-40 -53 -103 -80zM520 860q200 0 342 -156q121 -134 121 -315q0 -210 -156 -350q-134 -121 -315 -121q-210 0 -350 156q-121 134 -121 319q0 203 156 346
q133 121 323 121zM505 819q-183 0 -312 -142q-111 -123 -111 -288q0 -191 142 -319q123 -111 288 -111q192 0 320 142q110 123 110 292q0 185 -142 315q-122 111 -295 111z" />
    <glyph glyph-name="uni246B" unicode="&#x246b;" 
d="M510 80v70q206 266 206 397q0 88 -66 88q-69 0 -74 -129h-75q3 204 153 204q60 0 98 -42q40 -43 40 -119q0 -144 -190 -393h187v-76h-279zM185 512v83q84 39 113 111h69v-635h-79v521q-39 -52 -103 -80zM520 860q200 0 342 -156q121 -134 121 -315q0 -210 -156 -350
q-134 -121 -315 -121q-210 0 -350 156q-121 134 -121 319q0 203 156 346q133 121 323 121zM505 819q-183 0 -312 -142q-111 -123 -111 -288q0 -191 142 -319q123 -111 288 -111q192 0 320 142q110 123 110 292q0 185 -142 315q-122 111 -295 111z" />
    <glyph glyph-name="uni246C" unicode="&#x246c;" 
d="M489 263h76q6 -123 81 -123q84 0 84 114q0 75 -39 97q-24 14 -89 14h-9v67h9q49 0 75 11q43 19 43 100q0 95 -71 95q-61 0 -66 -114h-76q4 186 146 186q143 0 143 -164q0 -106 -86 -144q96 -38 96 -153q0 -180 -158 -180q-73 0 -115 46q-45 50 -45 126q0 6 1 22zM189 512
v83q83 39 113 111h69v-635h-79v521q-41 -53 -103 -80zM520 860q200 0 342 -156q121 -134 121 -315q0 -210 -156 -350q-134 -121 -315 -121q-210 0 -350 156q-121 134 -121 319q0 203 156 346q133 121 323 121zM505 819q-183 0 -312 -142q-111 -123 -111 -288
q0 -191 142 -319q123 -111 288 -111q192 0 320 142q110 123 110 292q0 185 -142 315q-122 111 -295 111z" />
    <glyph glyph-name="uni246D" unicode="&#x246d;" 
d="M477 220v76l201 408h70v-413h68v-71h-68v-145h-72v145h-199zM548 291h128v263zM189 512v83q83 39 113 111h69v-635h-79v521q-40 -53 -103 -80zM520 860q200 0 342 -156q121 -134 121 -315q0 -210 -156 -350q-134 -121 -315 -121q-210 0 -350 156q-121 134 -121 319
q0 203 156 346q133 121 323 121zM505 819q-183 0 -312 -142q-111 -123 -111 -288q0 -191 142 -319q123 -111 288 -111q192 0 320 142q110 123 110 292q0 185 -142 315q-122 111 -295 111z" />
    <glyph glyph-name="uni246E" unicode="&#x246e;" 
d="M492 259h77q8 -117 74 -117q79 0 79 155q0 131 -68 131q-58 0 -77 -86h-71v356h272v-76h-198v-170q38 49 89 49q130 0 130 -201q0 -233 -152 -233q-142 0 -155 192zM189 512v83q83 39 113 111h69v-635h-79v521q-40 -53 -103 -80zM520 860q200 0 342 -156
q121 -134 121 -315q0 -210 -156 -350q-134 -121 -315 -121q-210 0 -350 156q-121 134 -121 319q0 203 156 346q133 121 323 121zM505 819q-183 0 -312 -142q-111 -123 -111 -288q0 -191 142 -319q123 -111 288 -111q192 0 320 142q110 123 110 292q0 185 -142 315
q-122 111 -295 111z" />
    <glyph glyph-name="uni246F" unicode="&#x246f;" 
d="M802 540h-75q-7 97 -64 97q-54 0 -76 -78q-11 -36 -17 -132q54 66 103 66q63 0 98 -59q34 -58 34 -146q0 -220 -150 -220q-159 0 -159 301q0 342 167 342q129 0 139 -171zM658 421q-32 0 -60 -32q-28 -30 -28 -77q0 -170 86 -170q74 0 74 144q0 135 -72 135zM189 512v83
q83 39 113 111h69v-635h-79v521q-40 -53 -103 -80zM520 860q200 0 342 -156q121 -134 121 -315q0 -210 -156 -350q-134 -121 -315 -121q-210 0 -350 156q-121 134 -121 319q0 203 156 346q133 121 323 121zM505 819q-183 0 -312 -142q-111 -123 -111 -288q0 -191 142 -319
q123 -111 288 -111q192 0 320 142q110 123 110 292q0 185 -142 315q-122 111 -295 111z" />
    <glyph glyph-name="uni2470" unicode="&#x2470;" 
d="M502 621v77h289v-72l-173 -556h-85l178 551h-209zM189 512v83q83 39 113 111h69v-635h-79v521q-40 -52 -103 -80zM520 860q200 0 342 -156q121 -134 121 -315q0 -210 -156 -350q-134 -121 -315 -121q-210 0 -350 156q-121 134 -121 319q0 203 156 346q133 121 323 121z
M505 819q-183 0 -312 -142q-111 -123 -111 -288q0 -191 142 -319q123 -111 288 -111q192 0 320 142q110 123 110 292q0 185 -142 315q-122 111 -295 111z" />
    <glyph glyph-name="uni2471" unicode="&#x2471;" 
d="M571 408q-70 43 -70 135q0 85 52 132q40 36 99 36q67 0 107 -45q41 -46 41 -120q0 -95 -77 -138q88 -46 88 -156q0 -97 -55 -147q-42 -38 -106 -38q-72 0 -115 48q-46 51 -46 139q0 111 82 154zM649 372q-86 0 -86 -121q0 -113 90 -113q84 0 84 121q0 113 -88 113z
M648 640q-74 0 -74 -104q0 -94 76 -94t76 97q0 101 -78 101zM189 512v83q83 39 113 111h69v-635h-79v521q-40 -53 -103 -80zM520 860q200 0 342 -156q121 -134 121 -315q0 -210 -156 -350q-134 -121 -315 -121q-210 0 -350 156q-121 134 -121 319q0 203 156 346
q133 121 323 121zM505 819q-183 0 -312 -142q-111 -123 -111 -288q0 -191 142 -319q123 -111 288 -111q192 0 320 142q110 123 110 292q0 185 -142 315q-122 111 -295 111z" />
    <glyph glyph-name="uni2472" unicode="&#x2472;" 
d="M500 239h75q6 -98 63 -98q55 0 77 78q10 34 17 132q-53 -65 -104 -65q-47 0 -83 38q-49 53 -49 163q0 223 150 223q159 0 159 -295q0 -347 -167 -347q-129 0 -138 171zM644 636q-74 0 -74 -141q0 -138 68 -138q36 0 65 32q27 30 27 76q0 171 -86 171zM189 512v83
q83 39 113 111h69v-635h-79v521q-41 -53 -103 -80zM520 860q200 0 342 -156q121 -134 121 -315q0 -210 -156 -350q-134 -121 -315 -121q-210 0 -350 156q-121 134 -121 319q0 203 156 346q133 121 323 121zM505 819q-183 0 -312 -142q-111 -123 -111 -288q0 -191 142 -319
q123 -111 288 -111q192 0 320 142q110 123 110 292q0 185 -142 315q-122 111 -295 111z" />
    <glyph glyph-name="uni2473" unicode="&#x2473;" 
d="M219 80v78q197 261 197 389q0 88 -66 88q-68 0 -74 -129h-74q0 204 152 204q60 0 98 -42q40 -43 40 -119q0 -139 -189 -393h189v-76h-273zM692 711q153 0 153 -322t-157 -322t-157 316q0 167 36 246q37 82 125 82zM686 636q-79 0 -79 -246q0 -248 81 -248t81 240
q0 254 -83 254zM520 860q200 0 342 -156q121 -134 121 -315q0 -210 -156 -350q-134 -121 -315 -121q-210 0 -350 156q-121 134 -121 319q0 203 156 346q133 121 323 121zM505 819q-183 0 -312 -142q-111 -123 -111 -288q0 -191 142 -319q123 -111 288 -111q192 0 320 142
q110 123 110 292q0 185 -142 315q-122 111 -295 111z" />
    <glyph glyph-name="SF100000" unicode="&#x2500;" 
d="M0 373v31h1024v-31h-1024z" />
    <glyph glyph-name="uni2501" unicode="&#x2501;" 
d="M0 328v123h1024v-123h-1024z" />
    <glyph glyph-name="SF110000" unicode="&#x2502;" 
d="M497 -123v1024h31v-1024h-31z" />
    <glyph glyph-name="uni2503" unicode="&#x2503;" 
d="M451 -123v1024h123v-1024h-123z" />
    <glyph glyph-name="SF010000" unicode="&#x250c;" 
d="M497 404h527v-31h-496v-496h-31v527z" />
    <glyph glyph-name="uni250F" unicode="&#x250f;" 
d="M451 451h573v-123h-450v-451h-123v574z" />
    <glyph glyph-name="SF030000" unicode="&#x2510;" 
d="M528 404v-527h-31v496h-497v31h528z" />
    <glyph glyph-name="uni2513" unicode="&#x2513;" 
d="M574 451v-574h-123v451h-451v123h574z" />
    <glyph glyph-name="SF020000" unicode="&#x2514;" 
d="M497 373v528h31v-497h496v-31h-527z" />
    <glyph glyph-name="uni2517" unicode="&#x2517;" 
d="M451 328v573h123v-450h450v-123h-573z" />
    <glyph glyph-name="SF040000" unicode="&#x2518;" 
d="M528 373h-528v31h497v497h31v-528z" />
    <glyph glyph-name="uni251B" unicode="&#x251b;" 
d="M574 328h-574v123h451v450h123v-573z" />
    <glyph glyph-name="SF080000" unicode="&#x251c;" 
d="M528 404h496v-31h-496v-496h-31v1024h31v-497z" />
    <glyph glyph-name="uni251D" unicode="&#x251d;" 
d="M528 328v-451h-31v1024h31v-450h496v-123h-496z" />
    <glyph glyph-name="uni2520" unicode="&#x2520;" 
d="M574 404h450v-31h-450v-496h-123v1024h123v-497z" />
    <glyph glyph-name="uni2523" unicode="&#x2523;" 
d="M574 451h450v-123h-450v-451h-123v1024h123v-450z" />
    <glyph glyph-name="SF090000" unicode="&#x2524;" 
d="M497 404v497h31v-1024h-31v496h-497v31h497z" />
    <glyph glyph-name="uni2525" unicode="&#x2525;" 
d="M497 328h-497v123h497v450h31v-1024h-31v451z" />
    <glyph glyph-name="uni2528" unicode="&#x2528;" 
d="M451 404v497h123v-1024h-123v496h-451v31h451z" />
    <glyph glyph-name="uni252B" unicode="&#x252b;" 
d="M451 451v450h123v-1024h-123v451h-451v123h451z" />
    <glyph glyph-name="SF060000" unicode="&#x252c;" 
d="M528 373v-496h-31v496h-497v31h1024v-31h-496z" />
    <glyph glyph-name="uni252F" unicode="&#x252f;" 
d="M528 328v-451h-31v451h-497v123h1024v-123h-496z" />
    <glyph glyph-name="uni2530" unicode="&#x2530;" 
d="M451 373h-451v31h1024v-31h-450v-496h-123v496z" />
    <glyph glyph-name="uni2533" unicode="&#x2533;" 
d="M574 328v-451h-123v451h-451v123h1024v-123h-450z" />
    <glyph glyph-name="SF070000" unicode="&#x2534;" 
d="M528 404h496v-31h-1024v31h497v497h31v-497z" />
    <glyph glyph-name="uni2537" unicode="&#x2537;" 
d="M528 451h496v-123h-1024v123h497v450h31v-450z" />
    <glyph glyph-name="uni2538" unicode="&#x2538;" 
d="M451 404v497h123v-497h450v-31h-1024v31h451z" />
    <glyph glyph-name="uni253B" unicode="&#x253b;" 
d="M574 451h450v-123h-1024v123h451v450h123v-450z" />
    <glyph glyph-name="SF050000" unicode="&#x253c;" 
d="M497 404v497h31v-497h496v-31h-496v-496h-31v496h-497v31h497z" />
    <glyph glyph-name="uni253F" unicode="&#x253f;" 
d="M497 451v450h31v-450h496v-123h-496v-451h-31v451h-497v123h497z" />
    <glyph glyph-name="uni2542" unicode="&#x2542;" 
d="M574 404h450v-31h-450v-496h-123v496h-451v31h451v497h123v-497z" />
    <glyph glyph-name="uni254B" unicode="&#x254b;" 
d="M451 328h-451v123h451v450h123v-450h450v-123h-450v-451h-123v451z" />
    <glyph glyph-name="filledbox" unicode="&#x25a0;" 
d="M944 821v-864h-864v864h864z" />
    <glyph glyph-name="H22073" unicode="&#x25a1;" 
d="M944 821v-864h-864v864h864zM872 749h-720v-720h720v720z" />
    <glyph glyph-name="triagup" unicode="&#x25b2;" 
d="M512 815l471 -818h-942z" />
    <glyph glyph-name="uni25B3" unicode="&#x25b3;" 
d="M41 -7l471 836l471 -836h-942zM164 65h696l-348 617z" />
    <glyph glyph-name="triagdn" unicode="&#x25bc;" 
d="M512 -37l-471 818h942z" />
    <glyph glyph-name="uni25BD" unicode="&#x25bd;" 
d="M983 785l-471 -836l-471 836h942zM860 713h-696l348 -617z" />
    <glyph glyph-name="uni25C6" unicode="&#x25c6;" 
d="M512 -82l-471 471l471 471l471 -471z" />
    <glyph glyph-name="uni25C7" unicode="&#x25c7;" 
d="M512 860l471 -471l-471 -471l-471 471zM512 757l-368 -368l368 -368l368 368z" />
    <glyph glyph-name="circle" unicode="&#x25cb;" 
d="M520 847q194 0 332 -152q118 -130 118 -306q0 -204 -152 -340q-130 -118 -306 -118q-204 0 -340 152q-118 130 -118 310q0 197 152 336q129 118 314 118zM505 775q-164 0 -280 -128q-99 -110 -99 -258q0 -172 128 -287q110 -99 258 -99q172 0 287 128q99 110 99 261
q0 167 -128 284q-109 99 -265 99z" />
    <glyph glyph-name="uni25CE" unicode="&#x25ce;" 
d="M517 657q113 0 194 -89q69 -76 69 -179q0 -119 -89 -199q-76 -69 -179 -69q-119 0 -199 89q-69 76 -69 181q0 116 89 197q76 69 184 69zM509 585q-83 0 -143 -65q-50 -56 -50 -131q0 -87 65 -146q56 -50 131 -50q87 0 145 65q51 56 51 133q0 84 -65 143q-56 51 -134 51z
M520 860q200 0 342 -156q121 -134 121 -315q0 -210 -156 -350q-134 -121 -315 -121q-210 0 -350 156q-121 134 -121 319q0 203 156 346q133 121 323 121zM505 788q-169 0 -289 -132q-103 -114 -103 -267q0 -177 132 -296q114 -103 267 -103q178 0 297 132q102 114 102 270
q0 172 -132 293q-113 103 -274 103z" />
    <glyph glyph-name="H18533" unicode="&#x25cf;" 
d="M520 835q190 0 324 -148q114 -126 114 -297q0 -198 -147 -331q-127 -114 -298 -114q-198 0 -331 147q-114 127 -114 298q0 164 104 286q136 159 348 159z" />
    <glyph glyph-name="uni25EF" unicode="&#x25ef;" 
d="M520 860q200 0 342 -156q121 -134 121 -315q0 -210 -156 -350q-134 -121 -315 -121q-210 0 -350 156q-121 134 -121 319q0 203 156 346q133 121 323 121zM505 819q-183 0 -312 -142q-111 -123 -111 -288q0 -191 142 -319q123 -111 288 -111q192 0 320 142
q110 123 110 292q0 185 -142 315q-122 111 -295 111z" />
    <glyph glyph-name="uni2600" unicode="&#x2600;" horiz-adv-x="1167" 
d="M427 904l20 -10q-5 -32 -5 -70l-4 -40l4 -11l5 -15l-5 -15l-20 -5l-5 5l-5 66q1 43 15 95zM759 829q-2 -36 -20 -76l-45 -75q-11 13 -15 30l30 50q17 35 50 71zM105 693l66 -70l25 -46q12 -17 15 -40q-22 12 -40 30l-50 81q-14 19 -16 45zM478 643l126 -16l115 -29
l91 -56l55 -90l15 -61v-75l-15 -61l-20 -50l-71 -75q-19 -18 -45 -30l-50 -20l-66 -11l-125 20l-96 56l-40 30l-55 91l-15 60v75l15 60q7 23 20 51l25 45l35 41l56 20zM513 612l-60 -9l-46 -26q-21 -9 -40 -25l-25 -40l-20 -45l-15 -56l5 -125l20 -46l30 -40l35 -30l86 -50
l115 -16l15 -4l41 4l95 36l65 70l26 45l15 46v70l-10 55l-20 46l-26 40l-35 30l-40 25l-161 40zM548 567q24 -8 50 -25q-7 -27 -25 -50q-21 1 -40 15q2 28 15 60zM453 532q21 -4 40 -15l-15 -20q-5 -1 -10 -10l-21 10zM664 532q22 -23 25 -60q-7 -31 -20 -66l-45 -40
l-51 -30q-35 -5 -80 -5q-25 9 -55 25q-25 16 -46 40q-14 26 -25 61l5 30q17 -6 30 -20l10 -61l50 -35l66 -10l65 15q20 17 41 41q15 24 25 55l-5 45zM1066 532l15 -25l-141 -30q-11 10 -15 25l55 20q37 1 86 10zM10 341h161l10 -25l-25 -5l-45 5l-50 -5l-61 5zM940 235
q33 -16 81 -25l60 -15q-1 -11 -10 -20q-41 9 -95 10q-34 12 -36 50zM302 115q13 -11 20 -31l-25 -10q-22 -14 -46 -35l-70 -85l-20 15l20 30l75 81zM855 34q30 -26 55 -65l30 -66q-1 -6 -10 -9l-45 70q-26 27 -30 70zM573 -31l20 -5l5 -20l-25 -156l-20 10z" />
    <glyph glyph-name="uni2605" unicode="&#x2605;" 
d="M41 509h352l119 352l119 -352h352l-281 -210l132 -380l-322 239l-322 -239l132 380z" />
    <glyph glyph-name="uni2606" unicode="&#x2606;" 
d="M41 509h352l119 352l119 -352h352l-281 -209l132 -381l-322 240l-322 -240l132 381zM227 448l168 -126l-81 -234l198 147l198 -147l-81 234l168 126h-210l-75 221l-75 -221h-210z" />
    <glyph glyph-name="uni261A" unicode="&#x261a;" 
d="M872 557q18 43 50 43q61 0 61 -77v-260q0 -33 -23 -54q-16 -15 -36 -15q-35 0 -55 51h-51l-154 -34h-150l-58 9h-30q-79 0 -79 62q0 17 9 30q-39 19 -39 60q0 15 11 33q-35 17 -35 60q0 8 5 20h-168q-89 0 -89 62t89 62h272l79 11h146q35 -2 153 -40q72 -22 80 -23h12z
M945 260v252q0 51 -19 51q-21 0 -21 -51v-231q0 -50 21 -50q19 0 19 29z" />
    <glyph glyph-name="uni261B" unicode="&#x261b;" 
d="M152 557h12q2 -2 28 7q5 2 52 16q112 36 153 40h146l79 -11h272q89 0 89 -62t-89 -62h-168q5 -12 5 -20q0 -43 -35 -60q11 -18 11 -33q0 -41 -39 -60q9 -12 9 -30q0 -62 -78 -62h-31l-58 -9h-150q-12 -1 -44 8q-83 25 -110 26h-51q-19 -51 -54 -51q-60 0 -60 69v260
q0 77 61 77q32 0 50 -43zM119 281v231q0 51 -21 51q-19 0 -19 -51v-252q0 -29 19 -29q21 0 21 50z" />
    <glyph glyph-name="uni261C" unicode="&#x261c;" 
d="M872 557q18 43 50 43q61 0 61 -78v-258q0 -70 -59 -70q-35 0 -55 51h-51l-154 -34h-150l-58 9h-30q-79 0 -79 63q0 17 9 30q-39 18 -39 59q0 15 11 33q-36 17 -36 60q0 7 6 19h-168q-89 0 -89 63q0 62 89 62h272l79 11h146q25 2 92 -20q46 -16 61 -20q65 -20 80 -23h12z
M555 447q-3 -18 -12 -30q14 -19 14 -46q0 -26 -14 -46q14 -17 14 -43q0 -15 -7 -33h109q15 0 52 13q62 21 104 21h52v236h-14q-10 0 -35 10q-131 43 -196 52h-54l-132 -81q-16 -9 -16 -29q0 -34 34 -34q14 0 28 9l116 70q20 -145 122 -145q3 0 8 1l4 -39h-9q-77 0 -122 62
q-21 30 -27 63zM393 436q-11 17 -11 35q0 7 1 13h-21q-33 0 -33 -24t58 -24h6zM405 522q4 4 9 7l83 52h-16l-79 -10h-275q-49 0 -49 -23q0 -26 49 -26h278zM490 306h-68q-38 0 -38 -25q0 -23 36 -23h70q29 0 29 24t-29 24zM490 398h-91q-45 0 -45 -26q0 -11 8 -21
q5 -7 52 -7h76q29 0 29 27t-29 27zM945 261v250q0 52 -19 52q-21 0 -21 -52v-230q0 -50 21 -50q19 0 19 30z" />
    <glyph glyph-name="uni261D" unicode="&#x261d;" 
d="M363 29v12q2 4 -6 28q-5 12 -17 52q-36 114 -39 153v146l11 79v272q0 89 60 89q64 0 64 -89v-168q11 5 19 5q43 0 61 -36q17 12 33 12q40 0 59 -39q13 9 30 9q64 0 64 -79v-30l8 -58v-150l-34 -154v-51q51 -18 51 -55q0 -59 -69 -59h-260q-77 0 -77 61q0 31 42 50z
M473 346l-11 -19q41 -7 76 -37q50 -45 50 -112q0 -3 -1 -9l-38 4q1 6 1 8q0 102 -146 122l70 116q9 14 9 28q0 33 -34 33q-20 0 -29 -15l-81 -132v-54l62 -231v-14h237v52l34 156v110q-15 -8 -32 -8q-28 0 -45 14q-19 -14 -46 -14t-45 14q-13 -10 -31 -12zM484 508v6
q0 58 -24 58t-24 -33v-21h5q5 1 8 1q18 0 35 -11zM398 496v278q0 48 -26 48q-22 0 -22 -48v-275l-11 -79v-16l52 83q3 4 7 9zM664 411v70q0 36 -24 36q-25 0 -25 -38v-68q0 -29 25 -29q24 0 24 29zM577 411v76q0 47 -9 53q-9 7 -19 7q-27 0 -27 -45v-91q0 -29 27 -29
q28 0 28 29zM640 -4h-231q-51 0 -51 -21q0 -19 51 -19h252q29 0 29 19q0 21 -50 21z" />
    <glyph glyph-name="uni261E" unicode="&#x261e;" 
d="M152 557h12q2 -2 28 7q5 2 52 16q112 36 153 40h146l79 -11h272q89 0 89 -62q0 -63 -89 -63h-168q6 -11 6 -19q0 -43 -36 -60q11 -18 11 -33q0 -41 -39 -59q9 -13 9 -30q0 -63 -78 -63h-31l-58 -9h-150q-12 -1 -44 8q-83 25 -110 26h-51q-19 -51 -55 -51q-59 0 -59 70
v258q0 78 61 78q32 0 50 -43zM469 447l-19 11q-7 -41 -37 -75q-45 -50 -112 -50h-9l4 39q6 -1 9 -1q101 0 121 145l116 -70q14 -9 28 -9q34 0 34 34q0 20 -16 29l-132 81h-54l-231 -62h-14v-236h52l156 -34h110q-8 18 -8 33q0 26 14 43q-14 20 -14 46q0 27 14 46
q-9 12 -12 30zM631 436h6q58 0 58 24t-33 24h-21q1 -10 1 -13q0 -18 -11 -35zM619 522h278q49 0 49 26q0 23 -49 23h-275l-79 10h-16l83 -52q4 -3 9 -7zM534 258h70q36 0 36 23q0 25 -38 25h-68q-29 0 -29 -24t29 -24zM534 344h76q47 0 53 8q7 10 7 20q0 26 -45 26h-91
q-29 0 -29 -27t29 -27zM119 281v230q0 52 -21 52q-19 0 -19 -52v-250q0 -30 19 -30q21 0 21 50z" />
    <glyph glyph-name="uni261F" unicode="&#x261f;" 
d="M366 749q-42 19 -42 50q0 61 77 61h260q69 0 69 -59q0 -37 -51 -55v-51l34 -154v-150l-8 -58v-30q0 -79 -64 -79q-17 0 -30 9q-19 -39 -59 -39q-16 0 -33 11q-18 -36 -60 -36q-8 0 -20 6v-168q0 -89 -64 -89q-60 0 -60 89v272l-11 79v146q-3 21 20 92q13 40 19 61
q21 66 23 80v12zM476 432q18 -2 31 -12q18 14 45 14t46 -14q17 14 45 14q16 0 32 -7v109q3 7 -12 52q-22 67 -22 104v52h-237v-14q0 -10 -10 -35q-11 -28 -35 -117q-17 -61 -17 -79v-54l81 -132q9 -16 29 -16q34 0 34 34q0 14 -9 28l-70 116q146 20 146 122q0 2 -1 8l38 4
q1 -6 1 -9q0 -77 -63 -122q-29 -21 -63 -27zM487 270q-16 -11 -35 -11q-7 0 -13 1v-21q0 -33 24 -33t24 58v6zM401 282q-4 4 -7 9l-52 83v-16l11 -79v-275q0 -49 22 -49q26 0 26 49v278zM618 367v-68q0 -38 25 -38q24 0 24 36v70q0 29 -25 29q-24 0 -24 -29zM525 367v-91
q0 -45 27 -45q11 0 21 8q7 5 7 52v76q0 29 -27 29q-28 0 -28 -29zM664 822h-252q-51 0 -51 -19q0 -21 51 -21h231q50 0 50 21q0 19 -29 19z" />
    <glyph glyph-name="smileface" unicode="&#x263a;" horiz-adv-x="839" 
d="M219 781l65 -6l24 6l88 -6l83 -17q29 -17 65 -30q25 -20 60 -36l89 -106l35 -59l24 -77l12 -83l-6 -95l-65 -130l-47 -47l-125 -65l-166 -30q-39 3 -83 18l-71 24l-106 83l-77 118l-18 177l12 89l24 71l35 59l95 101zM213 746l-95 -89l-65 -118l-17 -78l-6 -82l12 -83
q8 -33 23 -65l36 -59l88 -89l65 -30l72 -17l153 17l72 24q27 14 53 35l53 36l65 124l12 77l-24 142q-13 28 -35 59q-13 28 -36 59q-20 21 -47 42l-48 41l-65 30l-70 18l-89 6q-36 -2 -71 -18l-30 -12l6 24zM361 663q28 -5 59 -24q-14 -21 -35 -41q-25 2 -48 24q7 20 24 41z
M219 639q24 -16 41 -41q-16 -20 -41 -36q-22 10 -35 36q12 23 35 41zM503 515q16 -31 18 -71q-15 -34 -47 -65q-38 -11 -83 -12q-31 18 -54 47l-11 42q21 -7 35 -24q32 -21 71 -36q31 21 53 54q2 29 18 65z" />
    <glyph glyph-name="female" unicode="&#x2640;" 
d="M476 454q-31 6 -58 22q-94 55 -94 162q0 69 44 121q56 67 144 67q83 0 140 -62q48 -54 48 -126q0 -107 -94 -162q-27 -15 -58 -22v-108h260v-72h-260v-323h-72v323h-260v72h260v108zM510 754q-49 0 -84 -38q-30 -33 -30 -77q0 -52 38 -86q34 -30 78 -30q51 0 86 38
q30 33 30 79q0 49 -39 84q-32 30 -79 30z" />
    <glyph glyph-name="male" unicode="&#x2642;" 
d="M383 336l357 370l-251 -39l-12 67l390 56l-37 -391l-67 6l30 252l-357 -369q39 -51 39 -113q0 -83 -62 -139q-54 -48 -126 -48q-83 0 -140 62q-48 53 -48 125q0 108 94 162q44 25 93 25t97 -26zM285 290q-49 0 -84 -38q-30 -33 -30 -77q0 -51 39 -85q33 -30 77 -30
q52 0 86 38q30 33 30 77q0 67 -58 100q-28 15 -60 15z" />
    <glyph glyph-name="musicalnote" unicode="&#x266a;" 
d="M476 146v714h68q17 -53 59 -110q27 -35 135 -151q102 -109 102 -224q0 -129 -145 -271l-40 40q123 114 123 215q0 77 -61 146q-30 35 -111 94q-32 23 -58 43v-532q0 -84 -58 -132q-73 -60 -176 -60q-131 0 -131 100q0 53 48 96q61 54 160 54q50 0 85 -22z" />
    <glyph glyph-name="uni266D" unicode="&#x266d;" 
d="M354 860h72v-492q79 79 160 79q67 0 108 -45q32 -35 32 -80q0 -183 -306 -404h-66v942zM426 -15q200 169 200 309q0 91 -70 91q-64 0 -130 -86v-314z" />
    <glyph glyph-name="uni266F" unicode="&#x266f;" 
d="M654 189v-193l-72 -21v192l-141 -42v-186l-72 -21v186l-103 -31v128l103 31v236l-103 -31v129l103 30v186l72 21v-185l141 42v179l72 21v-179l104 31v-128l-104 -31v-236l104 31v-128zM441 254l141 42v236l-141 -42v-236z" />
    <glyph glyph-name="uni3000" unicode="&#x3000;" 
 />
    <glyph glyph-name="uni3001" unicode="&#x3001;" 
d="M227 -82q-75 111 -186 217l60 57q109 -91 202 -212z" />
    <glyph glyph-name="uni3002" unicode="&#x3002;" 
d="M103 83q0 -26 20 -45.5t49 -19.5t49 19.5t20 45.5t-20 45.5t-49 19.5t-49 -19.5t-20 -45.5zM33 83q0 56 41 95.5t98 39.5t98 -39.5t41 -95.5t-41 -95.5t-98 -39.5t-98 39.5t-41 95.5z" />
    <glyph glyph-name="uni3003" unicode="&#x3003;" 
d="M226 227l205 358l92 -54l-239 -338zM493 228l213 357l91 -57l-247 -335z" />
    <glyph glyph-name="uni3005" unicode="&#x3005;" horiz-adv-x="781" 
d="M18 380q86 89 162 186q89 114 163 238l72 -55q-33 -73 -76 -141h415v-100q-45 -82 -112 -175t-133 -156l142 -98l-54 -79l-318 220l54 79l107 -74q55 58 118 139.5t103 143.5h-393q-15 -19 -31 -38q-68 -79 -148 -145z" />
    <glyph glyph-name="uni3006" unicode="&#x3006;" 
d="M191 -55l-68 47q21 60 35 169q32 257 101 337q58 66 146 66q65 0 151 -53q108 123 291 321l72 -67q-101 -102 -269 -283l-21 -23q74 -60 123 -112l-63 -71q-52 60 -120 117q-177 -197 -378 -448zM211 99l26 32q181 223 263 316q-55 41 -112 41q-73 0 -114 -90
q-27 -60 -56 -258q-3 -24 -7 -41z" />
    <glyph glyph-name="uni3007" unicode="&#x3007;" 
d="M520 836q190 0 324 -148q115 -127 115 -298q0 -199 -148 -332q-127 -115 -299 -115q-199 0 -332 148q-115 127 -115 302q0 193 148 328q126 115 307 115zM506 741q-150 0 -255 -117q-91 -99 -91 -234q0 -157 117 -262q100 -90 235 -90q157 0 262 116q90 100 90 238
q0 152 -117 258q-99 91 -241 91z" />
    <glyph glyph-name="uni3008" unicode="&#x3008;" 
d="M983 823l-281 -434l281 -433l-62 -38l-304 471l304 471z" />
    <glyph glyph-name="uni3009" unicode="&#x3009;" 
d="M41 823l62 37l304 -471l-304 -471l-62 38l282 433z" />
    <glyph glyph-name="uni300A" unicode="&#x300a;" 
d="M983 833l-204 -444l204 -443l-65 -28l-216 471l216 471zM826 833l-204 -444l204 -443l-66 -28l-215 471l215 471z" />
    <glyph glyph-name="uni300B" unicode="&#x300b;" 
d="M41 833l65 27l216 -471l-215 -471l-66 28l204 443zM198 833l66 27l215 -471l-215 -471l-66 28l204 443z" />
    <glyph glyph-name="uni300C" unicode="&#x300c;" 
d="M983 847v-72h-274v-743h-72v815h346z" />
    <glyph glyph-name="uni300D" unicode="&#x300d;" 
d="M41 -69v72h274v743h72v-815h-346z" />
    <glyph glyph-name="uni300E" unicode="&#x300e;" 
d="M970 847v-184h-194v-631h-184v815h378zM909 787h-257v-695h64v631h193v64z" />
    <glyph glyph-name="uni300F" unicode="&#x300f;" 
d="M54 -69v184h194v631h184v-815h-378zM115 -9h257v695h-64v-631h-193v-64z" />
    <glyph glyph-name="uni3010" unicode="&#x3010;" 
d="M984 847q-223 -170 -223 -462q0 -291 223 -454h-355v916h355z" />
    <glyph glyph-name="uni3011" unicode="&#x3011;" 
d="M41 847h355v-916h-355q223 163 223 454q0 292 -223 462z" />
    <glyph glyph-name="uni3012" unicode="&#x3012;" 
d="M911 537v-112h-342v-454h-114v454h-341v112h797zM911 787v-112h-797v112h797z" />
    <glyph glyph-name="uni3013" unicode="&#x3013;" 
d="M93 49v163h838v-163h-838zM93 565v164h838v-164h-838z" />
    <glyph glyph-name="uni3014" unicode="&#x3014;" 
d="M712 41v697l238 122l33 -65l-199 -102v-608l199 -102l-33 -65z" />
    <glyph glyph-name="uni3015" unicode="&#x3015;" 
d="M312 41l-238 -123l-33 65l199 102v608l-199 102l33 65l238 -122v-697z" />
    <glyph glyph-name="uni301C" unicode="&#x301c;" 
d="M69 336q123 172 269 172q48 0 101 -25q13 -6 144 -94q52 -35 101 -35q109 0 209 139l62 -55q-120 -168 -269 -168q-48 0 -99 20q-10 4 -143 95q-57 39 -108 39q-101 0 -204 -140z" />
    <glyph glyph-name="uni301D" unicode="&#x301d;" 
d="M967 472l-278 100l38 85l256 -147zM966 664l-277 112l41 84l253 -158z" />
    <glyph glyph-name="uni301F" unicode="&#x301f;" 
d="M57 306l278 -99l-38 -86l-256 147zM59 114l276 -112l-41 -84l-253 159z" />
    <glyph glyph-name="uni3041" unicode="&#x3041;" horiz-adv-x="653" 
d="M385 310q-31 6 -63 6h-12v-144q63 66 75 138zM322 409q82 0 154 -30t117 -85.5t45 -124.5q0 -80 -60 -141t-151 -85l-14 -4q-8 25 -14 44q-8 26 -14 46l15 4q65 17 102.5 55t37.5 81q0 59 -63 102q-17 -65 -60 -124.5t-107 -99.5t-130 -42q-81 -2 -121 42t-41 110
q-1 44 17 84t49.5 69.5t68.5 51t77 33.5v53h-180v85h180v78h80v-78h301v-85h-301v-39h12zM230 112v182q-48 -21 -81.5 -58t-32.5 -77q1 -18 2 -25.5t6.5 -17t18 -13t34.5 -5.5q21 -1 53 14z" />
    <glyph glyph-name="uni3042" unicode="&#x3042;" horiz-adv-x="826" 
d="M511 450q-51 14 -105 14q-17 0 -36 -3v-274q57 53 96 124t45 139zM597 413q-9 -54 -33.5 -110t-61.5 -106t-81.5 -89.5t-97.5 -63t-105 -24.5q-51 -1 -89 14.5t-60 43.5t-32.5 62.5t-11.5 75.5q-1 59 23 113.5t65 95.5t90 70t101 44v114h-241v78h241v111h66v-111h396v-78
h-396v-101q18 2 36 2q99 0 185 -37q94 -41 152.5 -116t58.5 -168q0 -106 -74.5 -188t-189.5 -115l-12 44l-12 43q90 26 144 86t54 130q0 52 -30 99.5t-85 80.5zM304 138v305q-74 -28 -132.5 -90t-56.5 -135v-16v-18.5t2 -18t5.5 -18t11 -15t18 -13t27 -7.5t37.5 -2
q41 1 88 28z" />
    <glyph glyph-name="uni3043" unicode="&#x3043;" horiz-adv-x="640" 
d="M388 444q21 43 35 72l79 3q80 -140 119 -296l-44 -11l-43 -11q-25 101 -69 195q-4 -8 -14 -30zM315 111q-62 -114 -135 -132q-33 -8 -61 1.5t-46 31t-29 44t-16 46.5q-8 32 -8 65v366h45h45v-366q0 -24 6 -47q15 -60 43 -53q20 5 50 42.5t63 99.5z" />
    <glyph glyph-name="uni3044" unicode="&#x3044;" horiz-adv-x="750" 
d="M70 701h50v-506q0 -8 1 -16q4 -56 19 -79t46 -20q25 2 51 10t57.5 36.5t40.5 73.5l76 -52q-35 -150 -223 -166q-71 -6 -115 44t-52 144q-1 12 -1 25v506h50zM507 575l-44 25l47 84q11 18 32.5 23.5t39.5 -6.5q6 -5 11 -10q67 -83 142 -308l-48 -16l-47 -16
q-55 164 -82 213l-8 -14z" />
    <glyph glyph-name="uni3045" unicode="&#x3045;" horiz-adv-x="540" 
d="M128 581l5 50l272 -30l-5 -50l-5 -50l-272 30zM188 0v50q93 0 162 52.5t74 114.5q2 26 -1 48q-11 58 -67.5 82.5t-144.5 8.5q-90 -16 -158 -47l-21 45l-21 45q80 37 182 55q41 6 83 7t82.5 -10.5t73.5 -31t57 -55t32 -82.5q6 -34 3 -73q-6 -73 -55 -133t-124 -93
t-157 -33v50z" />
    <glyph glyph-name="uni3046" unicode="&#x3046;" horiz-adv-x="682" 
d="M186 721l8 74l319 -34l-8 -75zM45 446l-38 65q70 40 172 70q130 39 227 28t160 -64t90 -144q27 -93 -14.5 -180.5t-133.5 -155.5q-140 -103 -317 -125l-10 75q84 10 160.5 42t131.5 76q70 55 99.5 120t11.5 127q-33 111 -124.5 144t-258.5 -15q-95 -28 -156 -63z" />
    <glyph glyph-name="uni3047" unicode="&#x3047;" horiz-adv-x="706" 
d="M210 617l287 -27l-7 -71l-286 26zM106 449h414v-57q-15 -15 -42.5 -41.5t-50.5 -48t-43 -40.5q60 -5 73 -55q8 -33 11.5 -68t4 -51.5t8 -31t27.5 -18.5t60 -3q14 1 30 3t35.5 4.5t31.5 4.5l15 2q1 -12 4 -35t4 -35l-15 -2q-5 0 -35.5 -4t-44.5 -5.5t-41.5 -3t-44.5 0.5
t-36 7.5t-31 15.5q-14 12 -23 24t-12.5 26.5t-5 24t-1.5 25.5t-1 22q-1 7 -1.5 21t-1 19t-3.5 14.5t-8 12.5t-14.5 7t-24 5t-35.5 1l-1 -1l-1 -1l-1 -1l-1 -1l-1 -1l-1 -1l-1 -1l-1 -1l-1 -1l-1 -1l-1 -1l-1 -1l-1 -1l-1 -1l-1 -1h-1l-1 -1l-1 -1l-1 -1l-1 -1l-1 -1l-1 -1
l-1 -1l-1 -1l-1 -1l-1 -1l-1 -1l-1 -1l-1 -1l-1 -1l-1 -1l-1 -1l-1 -1l-1 -1l-1 -1l-1 -1l-1 -1h-1l-1 -1l-1 -1l-1 -1l-1 -1l-1 -1l-1 -1l-1 -1l-1 -1l-1 -1l-1 -1l-1 -1l-1 -1l-1 -1l-1 -1l-1 -1l-1 -1l-1 -1l-1 -1l-1 -1l-1 -1l-1 -1l-1 -1h-1l-1 -1l-1 -1l-1 -1l-1 -1
l-1 -1l-1 -1l-1 -1l-1 -1l-1 -1l-1 -1l-1 -1l-1 -1l-1 -1l-1 -1l-1 -1l-1 -1l-1 -1l-1 -1l-1 -1l-1 -1l-1 -1h-1l-1 -1l-1 -1l-1 -1l-1 -1l-1 -1l-1 -1l-1 -1l-1 -1l-1 -1l-1 -1l-1 -1l-1 -1l-1 -1l-1 -1l-1 -1l-1 -1l-1 -1l-2 -2l-1 -1h-1l-1 -1l-1 -1l-1 -1l-1 -1l-1 -1
l-1 -1l-1 -1l-1 -1l-1 -1l-1 -1l-1 -1l-1 -1l-1 -1l-1 -1l-1 -1l-1 -1l-1 -1l-1 -1l-1 -1l-1 -1l-1 -1l-1 -1h-1l-1 -1l-1 -1l-1 -1l-1 -1l-1 -1l-1 -1l-1 -1l-1 -1l-1 -1l-1 -1l-1 -1l-1 -1l-1 -1l-1 -1l-1 -1l-1 -1l-1 -1l-1 -1l-1 -1l-1 -1l-1 -1l-1 -1h-1l-1 -1l-1 -1
l-1 -1l-1 -1l-1 -1l-1 -1l-1 -1l-1 -1l-1 -1l-1 -1l-1 -1l-1 -1l-1 -1l-1 -1l-1 -1l-1 -1l-1 -1l-1 -1l-1 -1l-1 -1l-1 -1h-1l-1 -1l-1 -1l-1 -1l-1 -1l-1 -1l-1 -1l-1 -1l-1 -1l-1 -1l-1 -1l-1 -1l-1 -1l-1 -1l-1 -1l-1 -1l-1 -1l-1 -1l-1 -1l-1 -1l-1 -1l-1 -1l-1 -1h-1
l-1 -1l-1 -1l-1 -1l-1 -1l-1 -1l-1 -1l-1 -1l-2 -2h-6h-89q45 44 127.5 122.5t150.5 143.5t128 122h-295h-15v66z" />
    <glyph glyph-name="uni3048" unicode="&#x3048;" horiz-adv-x="928" 
d="M277 841l412 -46l-9 -84l-412 47zM158 627h564v-90l-190 -176q23 -8 39.5 -24.5t25.5 -40t14 -44.5t5.5 -50.5t0 -45t-1.5 -38.5q-1 -12 0 -22q6 -47 91 -51.5t190 13.5h6l4 -39l5 -40q-10 -1 -34 -4q-41 -6 -65 -8.5t-69 -5t-74 4t-61 19t-50 39t-22 64.5q-2 16 -1 34
q10 166 -48 166q-11 0 -26 -3q-7 -2 -15 -4l-303 -281h-135l579 537h-429v90z" />
    <glyph glyph-name="uni3049" unicode="&#x3049;" horiz-adv-x="652" 
d="M551 576l86 -123l-61 -42l-86 123zM219 8q6 141 4 266q-68 -18 -107.5 -54.5t-39.5 -76.5q0 -48 17.5 -77t47.5 -41t78 -17zM216 -52q-95 9 -147.5 57.5t-52.5 137.5q0 70 59 121.5t147 70.5q-1 16 -2 59t-1 68h-176v52h175q-1 40 -1 78h30h30q0 -38 1 -78h191v-52h-190
q0 -24 1 -65t2 -53q17 1 34 1q58 0 111 -10.5t98 -31.5t71.5 -57t26.5 -82q0 -33 -10 -66.5t-30.5 -65t-58 -51t-86.5 -19.5q-31 0 -67 9l8 29l8 29q27 -7 51 -7q62 -1 93.5 42.5t31.5 99.5q0 50 -69 85.5t-178 35.5q-16 0 -33 -1q3 -191 -7 -340z" />
    <glyph glyph-name="uni304A" unicode="&#x304a;" horiz-adv-x="861" 
d="M711 782l125 -163l-64 -49l-125 164zM260 372q-78 -22 -121.5 -62.5t-44.5 -80.5q-2 -59 3 -92t24.5 -55t51 -30.5t87.5 -10.5v331zM300 -40q-156 0 -223.5 62.5t-62.5 208.5q3 79 71.5 139t174.5 84v183h-231v68h231v117h80v-117h267v-68h-267v-171q24 2 47 2
q77 0 146.5 -12.5t132 -39t99.5 -74.5t37 -112q0 -99 -79 -173t-198 -100l-10 -3l-17 79l9 2q98 21 156.5 76.5t58.5 118.5q0 70 -93.5 114t-241.5 44q-23 0 -47 -2v-426h-40z" />
    <glyph glyph-name="uni304B" unicode="&#x304b;" horiz-adv-x="916" 
d="M39 581l-2 43l166 10l64 202l90 -18l-58 -179l113 6q18 1 38 -3q68 -15 112.5 -80t25.5 -147l-90 -397q-3 -13 -10 -23q-9 -13 -22 -21q-27 -15 -56 -14t-57.5 12.5t-51 25.5t-36.5 26l-14 11l25 36l25 36q5 -4 22 -14t47 -25t46 -18l88 385q10 43 -14.5 79t-58.5 43
q-8 2 -15 2l-145 -9l-178 -550l-75 47l157 498l-134 -7zM801 194l-186 444l78 36l204 -444z" />
    <glyph glyph-name="uni304C" unicode="&#x304c;" horiz-adv-x="916" 
d="M758 841v-138h-67v138h67zM867 841v-138h-67v138h67zM39 581l-2 43l166 10l64 202l90 -18l-58 -179l113 6q18 1 38 -3q68 -15 112.5 -80t25.5 -147l-90 -397q-3 -13 -10 -23q-9 -13 -22 -21q-27 -15 -56 -14t-57.5 12.5t-51 25.5t-36.5 26l-14 11l25 36l25 36
q5 -4 22 -14t47 -25t46 -18l88 385q10 43 -14.5 79t-58.5 43q-8 2 -15 2l-145 -9l-178 -550l-75 47l157 498l-134 -7zM801 194l-186 444l78 36l204 -444z" />
    <glyph glyph-name="uni304D" unicode="&#x304d;" horiz-adv-x="800" 
d="M647 65h17h10h44q0 -45 -32 -77t-77 -32h-320q-97 0 -164 46q-43 30 -65.5 73.5t-22.5 89.5q0 71 48 125t127 54v-44v-5v-39q-41 0 -64.5 -26t-23.5 -65q0 -56 51 -91q44 -30 114 -30h320q9 0 15 6t6 15h17zM316 834h98l63 -117h285v-90h-237l49 -90h196v-72h-158
l110 -204h-98l-110 204h-492v72h454l-49 90h-397v90h349z" />
    <glyph glyph-name="uni304E" unicode="&#x304e;" horiz-adv-x="800" 
d="M621 891v-138h-67v138h67zM730 891v-138h-67v138h67zM647 65h17h10h44q0 -45 -32 -77t-77 -32h-320q-97 0 -164 46q-43 30 -65.5 73.5t-22.5 89.5q0 71 48 125t127 54v-44v-5v-39q-41 0 -64.5 -26t-23.5 -65q0 -56 51 -91q44 -30 114 -30h320q9 0 15 6t6 15h17zM316 834
h98l63 -117h285v-90h-237l49 -90h196v-72h-158l110 -204h-98l-110 204h-492v72h454l-49 90h-397v90h349z" />
    <glyph glyph-name="uni304F" unicode="&#x304f;" horiz-adv-x="655" 
d="M186 430l452 -413l-86 -67l-537 486l521 406l79 -100z" />
    <glyph glyph-name="uni3050" unicode="&#x3050;" horiz-adv-x="847" 
d="M707 872v-138h-67v138h67zM816 872v-138h-67v138h67zM186 430l452 -413l-86 -67l-537 486l521 406l79 -100z" />
    <glyph glyph-name="uni3051" unicode="&#x3051;" horiz-adv-x="862" 
d="M29 792h99v-753h-99v753zM635 798h43l-1 -180h159v-78h-159l-2 -243q0 -23 -4.5 -53t-16 -69t-37.5 -74t-61 -53l-213 -108l-20 39l-20 39l213 108q30 15 51 74.5t22 96.5l1 243h-360v78h360l2 180h43z" />
    <glyph glyph-name="uni3052" unicode="&#x3052;" horiz-adv-x="862" 
d="M732 883v-138h-67v138h67zM841 883v-138h-67v138h67zM29 792h99v-753h-99v753zM678 718l-1 -100h159v-78h-159l-2 -243q0 -23 -4.5 -53t-16 -69t-37.5 -74t-61 -53l-213 -108l-20 39l-20 39l213 108q30 15 51 74.5t22 96.5l1 243h-360v78h360l2 180h50v-80h36z" />
    <glyph glyph-name="uni3053" unicode="&#x3053;" horiz-adv-x="730" 
d="M90 349l41 -14q-4 -13 -11.5 -32.5t-11 -29.5t-6 -22t-2.5 -22v-11q7 -100 186 -126q58 -8 140 -8.5t139 3t146 9.5l3 -43l3 -43q-3 -1 -81 -8t-115 -8t-106.5 -2.5t-125.5 6t-103 22.5q-163 51 -173 192q-1 8 -1 17q0 19 4.5 39t9 33t12.5 33t11 29zM92 747h576v-110
l-86 -108h-102l86 108h-474v110z" />
    <glyph glyph-name="uni3054" unicode="&#x3054;" horiz-adv-x="730" 
d="M90 349l41 -14q-4 -13 -11.5 -32.5t-11 -29.5t-6 -22t-2.5 -22v-11q7 -100 186 -126q58 -8 140 -8.5t139 3t146 9.5l3 -43l3 -43q-3 -1 -81 -8t-115 -8t-106.5 -2.5t-125.5 6t-103 22.5q-163 51 -173 192q-1 8 -1 17q0 19 4.5 39t9 33t12.5 33t11 29zM665 850v-138h-67
v138h67zM556 850v-138h-67v138h67zM668 688v-51l-86 -108h-102l86 108h-474v110h375v-59h201z" />
    <glyph glyph-name="uni3055" unicode="&#x3055;" horiz-adv-x="784" 
d="M346 824h78l54 -154h290v-70h-250l7 -14q39 -84 72 -138.5t90 -129.5l10 -12h-74q-63 83 -102.5 146t-79.5 148h-419h-8v70h386zM621 56h64l-2 -10q-7 -35 -34 -57.5t-63 -22.5q-151 0 -264.5 13.5t-188.5 54.5q-109 60 -109 175q-1 61 47 111t118 57h9v-68
q-51 -7 -74 -45t-11 -82.5t51 -71.5q24 -16 48 -28t41.5 -20.5t48 -13.5t44.5 -8t53 -4.5t52.5 -2t65.5 0t69 0.5q18 0 30 22h5z" />
    <glyph glyph-name="uni3056" unicode="&#x3056;" horiz-adv-x="784" 
d="M644 840v-138h-67v138h67zM753 840v-138h-67v138h67zM346 824h78l54 -154h290v-70h-250l7 -14q39 -84 72 -138.5t90 -129.5l10 -12h-74q-63 83 -102.5 146t-79.5 148h-419h-8v70h386zM621 56h64l-2 -10q-7 -35 -34 -57.5t-63 -22.5q-151 0 -264.5 13.5t-188.5 54.5
q-109 60 -109 175q-1 61 47 111t118 57h9v-68q-51 -7 -74 -45t-11 -82.5t51 -71.5q24 -16 48 -28t41.5 -20.5t48 -13.5t44.5 -8t53 -4.5t52.5 -2t65.5 0t69 0.5q18 0 30 22h5z" />
    <glyph glyph-name="uni3057" unicode="&#x3057;" horiz-adv-x="733" 
d="M40 834l100 -4q-3 -98 -10 -289q-6 -191 -9 -290q-4 -127 94 -173q62 -29 140 -19q49 6 89.5 29t71.5 62t53 77.5t45 91.5l11 23q7 -3 22.5 -10t22.5 -10h1l1 -1h1l1 -1h1l1 -1h1l1 -1h1h1l1 -1h1l1 -1h1l1 -1h1l1 -1h1h1l1 -1h1l2 -1l1 -1h1h1l1 -1h1l1 -1h1l1 -1h1
l1 -1h1h1l1 -1h1l1 -1h1l1 -1h1l1 -1h1h1l2 -1l-10 -23q-21 -47 -39.5 -82.5t-51.5 -81.5t-69 -76.5t-88.5 -54t-113.5 -27.5q-94 -6 -172 32q-71 33 -112.5 100t-38.5 166q3 98 9.5 289t9.5 290z" />
    <glyph glyph-name="uni3058" unicode="&#x3058;" horiz-adv-x="733" 
d="M495 844v-138h-67v138h67zM604 844v-138h-67v138h67zM40 834l100 -4q-3 -98 -10 -289q-6 -191 -9 -290q-4 -127 94 -173q62 -29 140 -19q49 6 89.5 29t71.5 62t53 77.5t45 91.5l11 23q7 -3 22.5 -10t22.5 -10h1l1 -1h1l1 -1h1l1 -1h1l1 -1h1h1l1 -1h1l1 -1h1l1 -1h1l1 -1
h1h1l1 -1h1l2 -1l1 -1h1h1l1 -1h1l1 -1h1l1 -1h1l1 -1h1h1l1 -1h1l1 -1h1l1 -1h1l1 -1h1h1l2 -1l-10 -23q-21 -47 -39.5 -82.5t-51.5 -81.5t-69 -76.5t-88.5 -54t-113.5 -27.5q-94 -6 -172 32q-71 33 -112.5 100t-38.5 166q3 98 9.5 289t9.5 290z" />
    <glyph glyph-name="uni3059" unicode="&#x3059;" horiz-adv-x="931" 
d="M295 366q0 -49 31 -87.5t71 -37.5q43 1 73 23.5t42 57.5l1 78q-13 34 -47.5 57t-68.5 23q-41 0 -71.5 -33t-30.5 -81zM556 835h39l-1 -112h310v-84h-311l-4 -423q0 -47 -18 -95.5t-54.5 -88.5t-82.5 -52l-175 -46l-39 66l194 56q30 8 58 48.5t36 86.5q-45 -31 -111 -28
q-93 5 -136.5 61.5t-43.5 141.5q0 78 52 135t128 57q65 0 117 -43l1 124h-499v84h500l1 112h39z" />
    <glyph glyph-name="uni305A" unicode="&#x305a;" horiz-adv-x="931" 
d="M804 846v-138h-67v138h67zM913 846v-138h-67v138h67zM556 835h39l-1 -112h123v-33h187v-51h-311l-4 -423q0 -47 -18 -95.5t-54.5 -88.5t-82.5 -52l-175 -46l-39 66l194 56q30 8 58 48.5t36 86.5q-45 -31 -111 -28q-93 5 -136.5 61.5t-43.5 141.5q0 78 52 135t128 57
q65 0 117 -43l1 124h-499v84h500l1 112h39zM295 366q0 -49 31 -87.5t71 -37.5q43 1 73 23.5t42 57.5l1 78q-13 34 -47.5 57t-68.5 23q-41 0 -71.5 -33t-30.5 -81z" />
    <glyph glyph-name="uni305B" unicode="&#x305b;" horiz-adv-x="934" 
d="M771 29l-1 -41l-392 6q-60 1 -111 56t-50 144l3 309h-199v93h200l2 192h41h41l-2 -192h315v195h90v-195h192v-93h-192v-104q0 -75 -38.5 -100t-125.5 -25v41v41q74 0 74 43v104h-316l-3 -309q0 -31 9.5 -55.5t23 -37t26 -19t20.5 -6.5l394 -6z" />
    <glyph glyph-name="uni305C" unicode="&#x305c;" horiz-adv-x="934" 
d="M817 793v-138h-67v138h67zM926 793v-138h-67v138h67zM771 29l-1 -41l-392 6q-60 1 -111 56t-50 144l3 309h-199v93h200l2 192h41h41l-2 -192h315v195h90v-195h192v-93h-192v-104q0 -75 -38.5 -100t-125.5 -25v41v41q74 0 74 43v104h-316l-3 -309q0 -31 9.5 -55.5t23 -37
t26 -19t20.5 -6.5l394 -6z" />
    <glyph glyph-name="uni305D" unicode="&#x305d;" horiz-adv-x="877" 
d="M857 522v-84h-262q-48 -6 -98 -36.5t-84 -81.5t-34 -104q0 -78 84.5 -138t207.5 -52v-41v-41q-97 -12 -183 18.5t-138.5 98t-52.5 155.5q0 30 11.5 61t34 62t40 51t44.5 48h-410v84l507 204h-336v81h537v-81l-435 -204h567z" />
    <glyph glyph-name="uni305E" unicode="&#x305e;" horiz-adv-x="877" 
d="M820 871v-138h-67v138h67zM929 871v-138h-67v138h67zM857 522v-84h-262q-48 -6 -98 -36.5t-84 -81.5t-34 -104q0 -78 84.5 -138t207.5 -52v-41v-41q-97 -12 -183 18.5t-138.5 98t-52.5 155.5q0 30 11.5 61t34 62t40 51t44.5 48h-410v84l507 204h-336v81h537v-81
l-435 -204h567z" />
    <glyph glyph-name="uni305F" unicode="&#x305f;" horiz-adv-x="916" 
d="M550 57l213 2h3q16 -1 27 3t15 9t4 9h82q0 -37 -23 -62.5t-52 -34t-57 -6.5l-211 -2q-28 -1 -59 9.5t-60 33t-47 63.5t-16 93q1 40 25 72l87 -5q-39 -45 -35 -86t35.5 -69.5t68.5 -28.5zM826 433h-384v83h384v-83zM277 832h96l-35 -117h308v-90h-334l-191 -645h-96
l191 645h-197v90h223z" />
    <glyph glyph-name="uni3060" unicode="&#x3060;" horiz-adv-x="916" 
d="M774 813v-138h-67v138h67zM883 813v-138h-67v138h67zM550 57l213 2h3q16 -1 27 3t15 9t4 9h82q0 -37 -23 -62.5t-52 -34t-57 -6.5l-211 -2q-28 -1 -59 9.5t-60 33t-47 63.5t-16 93q1 40 25 72l87 -5q-39 -45 -35 -86t35.5 -69.5t68.5 -28.5zM826 433h-384v83h384v-83z
M277 832h96l-35 -117h308v-90h-334l-191 -645h-96l191 645h-197v90h223z" />
    <glyph glyph-name="uni3061" unicode="&#x3061;" horiz-adv-x="855" 
d="M262 830h84l-26 -129h476v-78h-492l-54 -262q85 47 177 69q7 2 15 3q64 15 127.5 9t116 -25t90 -59t48.5 -94q5 -22 4 -44q0 -50 -21.5 -91t-60 -70.5t-84.5 -49.5t-103 -34q-115 -28 -247 -26h-43l2 90h43q116 -2 218 24q93 24 149.5 65t56.5 93q1 12 -2 26
q-11 55 -89 87.5t-187 10.5q-7 -1 -13 -3q-62 -14 -128.5 -46.5t-95.5 -65.5h-84l81 393h-201v78h217z" />
    <glyph glyph-name="uni3062" unicode="&#x3062;" horiz-adv-x="850" 
d="M687 875v-138h-67v138h67zM796 875v-138h-67v138h67zM262 830h84l-26 -129h476v-78h-492l-54 -262q85 47 177 69q7 2 15 3q64 15 127.5 9t116 -25t90 -59t48.5 -94q5 -22 4 -44q0 -50 -21.5 -91t-60 -70.5t-84.5 -49.5t-103 -34q-115 -28 -247 -26h-43l2 90h43
q116 -2 218 24q93 24 149.5 65t56.5 93q1 12 -2 26q-11 55 -89 87.5t-187 10.5q-7 -1 -13 -3q-62 -14 -128.5 -46.5t-95.5 -65.5h-84l81 393h-201v78h217z" />
    <glyph glyph-name="uni3063" unicode="&#x3063;" horiz-adv-x="690" 
d="M31 423l-18 41q47 21 171 47q73 15 104 21q35 6 66.5 8.5t68 1t67.5 -8.5t61.5 -23t53.5 -40.5t41 -62t26 -86.5q12 -66 -26 -133t-113 -117.5t-167 -69.5q-30 -6 -86.5 -13.5t-83.5 -5.5l3 45l3 45q11 -1 70.5 6.5t75.5 10.5q58 12 106.5 39.5t76.5 59.5t42 63.5
t11 54.5q-8 47 -26 77.5t-41.5 46.5t-59 21t-70.5 2.5t-84 -10.5q-29 -5 -101 -20q-115 -24 -153 -41z" />
    <glyph glyph-name="uni3064" unicode="&#x3064;" horiz-adv-x="890" 
d="M16 578l-8 38q43 10 107 27.5t117.5 29.5t114.5 20q68 9 128.5 10.5t125 -8.5t113.5 -32.5t87 -66t53 -104.5q12 -55 5.5 -103.5t-27.5 -88.5q-22 -44 -55 -81t-69 -64t-83 -50t-89.5 -37.5t-96.5 -27.5t-95 -20t-94 -15l-6 38l-5 38q73 11 131 23t123 32.5t113.5 46.5
t90.5 64.5t67 86.5q37 74 18 144q-51 187 -425 139q-57 -8 -108 -19.5t-114.5 -29t-109.5 -27.5z" />
    <glyph glyph-name="uni3065" unicode="&#x3065;" horiz-adv-x="890" 
d="M749 838v-138h-67v138h67zM858 838v-138h-67v138h67zM16 578l-8 38q43 10 107 27.5t117.5 29.5t114.5 20q68 9 128.5 10.5t125 -8.5t113.5 -32.5t87 -66t53 -104.5q12 -55 5.5 -103.5t-27.5 -88.5q-22 -44 -55 -81t-69 -64t-83 -50t-89.5 -37.5t-96.5 -27.5t-95 -20
t-94 -15l-6 38l-5 38q73 11 131 23t123 32.5t113.5 46.5t90.5 64.5t67 86.5q37 74 18 144q-51 187 -425 139q-57 -8 -108 -19.5t-114.5 -29t-109.5 -27.5z" />
    <glyph glyph-name="uni3066" unicode="&#x3066;" horiz-adv-x="874" 
d="M857 741v-102h-191q-101 -36 -184.5 -133.5t-89.5 -176.5q-4 -52 18 -103t61 -88.5t89 -62.5t100 -29q8 -1 17 -1v-45v-45q-12 0 -24 1q-66 5 -131 36.5t-116 80.5t-80.5 119t-23.5 145q7 81 58.5 163.5t132.5 138.5h-476v102h840z" />
    <glyph glyph-name="uni3067" unicode="&#x3067;" horiz-adv-x="874" 
d="M721 587v-138h-67v138h67zM830 587v-138h-67v138h67zM857 741v-102h-191q-101 -36 -184.5 -133.5t-89.5 -176.5q-4 -52 18 -103t61 -88.5t89 -62.5t100 -29q8 -1 17 -1v-45v-45q-12 0 -24 1q-66 5 -131 36.5t-116 80.5t-80.5 119t-23.5 145q7 81 58.5 163.5t132.5 138.5
h-476v102h840z" />
    <glyph glyph-name="uni3068" unicode="&#x3068;" horiz-adv-x="730" 
d="M628 86h82q0 -42 -30 -72t-72 -30l-423 -3q-52 0 -91 24t-60 64q-20 39 -23 88.5t9.5 95.5t40.5 86t68 60l179 91v321h84v-278l220 112l40 -80l-483 -246q-39 -20 -58.5 -90.5t3.5 -118.5q21 -39 71 -39l423 3q4 0 8 4t4 8h8z" />
    <glyph glyph-name="uni3069" unicode="&#x3069;" horiz-adv-x="730" 
d="M581 813v-138h-67v138h67zM690 813v-138h-67v138h67zM628 86h82q0 -42 -30 -72t-72 -30l-423 -3q-52 0 -91 24t-60 64q-20 39 -23 88.5t9.5 95.5t40.5 86t68 60l179 91v321h84v-278l220 112l40 -80l-483 -246q-39 -20 -58.5 -90.5t3.5 -118.5q21 -39 71 -39l423 3
q4 0 8 4t4 8h8z" />
    <glyph glyph-name="uni306A" unicode="&#x306a;" horiz-adv-x="913" 
d="M549 114v71l-102 19q-44 0 -73 -27t-29 -63t29 -63t73 -27t73 27t29 63zM290 648l-191 -525h-90l191 525h-176v84h206l37 102h90l-37 -102h226v-84h-256zM501 555l33 75l360 -39l-33 -78zM639 113q0 -76 -57 -127.5t-135 -51.5t-135 52t-57 128t57 128t135 52l102 -20
v194h90v-214q93 -22 123 -38.5t123 -95.5l-39 -45q-20 11 -54 29.5t-42.5 22.5t-29.5 13t-37.5 13.5t-43.5 10.5v-51z" />
    <glyph glyph-name="uni306B" unicode="&#x306b;" horiz-adv-x="820" 
d="M333 285q-30 2 -50.5 -45t-3.5 -94t78 -47h297q21 0 34.5 11.5t15.5 22.5l3 11h78q0 -48 -33.5 -81.5t-81.5 -33.5h-313q-51 0 -86 21.5t-49.5 54.5t-19.5 56.5t-5 42.5q0 50 40.5 99t95.5 49v-67zM247 681h474v-90h-474v90zM25 786h84v-807h-84v807z" />
    <glyph glyph-name="uni306C" unicode="&#x306c;" horiz-adv-x="926" 
d="M795 114q-1 1 -2 3q-32 45 -74 64.5t-88 7.5q-24 -6 -39 -36.5t-7 -60.5q5 -21 19.5 -31t47.5 -6q107 12 143 59zM504 545q-20 2 -39 2q-81 0 -153 -25l84 -312zM886 115q1 -2 2 -3q14 -30 23 -62l-38 -11l-38 -11q-2 4 -3 9q-58 -48 -170 -62q-60 -7 -101.5 21.5
t-53.5 76.5q-8 27 -3.5 58t16 58t36 48.5t55.5 29.5q60 15 115 -3t98 -60q3 29 3 79q0 82 -67 151.5t-177 97.5l-161 -505l-11 -34l-34 7q-354 63 -354 283q0 89 52.5 163.5t141.5 121.5l-43 157l39 10l39 10l39 -146q84 28 174 28q32 0 63 -4l40 124l38 -12l38 -12
l-36 -114q130 -35 214.5 -123.5t84.5 -202.5q0 -104 -17 -156zM347 87l-109 401q-63 -38 -99 -92t-36 -113q0 -140 244 -196z" />
    <glyph glyph-name="uni306D" unicode="&#x306d;" horiz-adv-x="904" 
d="M285 -42h-87v372q-16 -19 -41.5 -52t-45.5 -57t-36 -43l-30 26l-30 26q15 18 77 99.5t106 132.5v102h-165v87h165v165h87v-263q237 222 438 96q69 -43 101.5 -125.5t28.5 -171.5t-36 -171q-3 -9 -7 -19q42 -36 74 -78l-32 -24l-32 -24q-21 28 -49 54q-28 -42 -62 -71
q-74 -59 -152 -57.5t-123 54.5q-33 40 -29 94q5 64 60.5 107t140.5 36q68 -6 136 -44q43 106 25 217.5t-86 154.5q-50 31 -102 32t-103 -25.5t-96 -63.5t-95 -92v-474zM706 137q-55 32 -106 36q-56 5 -84.5 -17.5t-30.5 -51.5q-2 -21 10.5 -36t36 -22.5t58.5 0t67 34.5
q27 23 49 57z" />
    <glyph glyph-name="uni306E" unicode="&#x306e;" horiz-adv-x="892" 
d="M459 684q-67 0 -134 -31t-117.5 -79t-82 -111t-31.5 -123q0 -69 32.5 -123.5t93.5 -89.5zM542 674l-266 -619l-15 -36l-37 16q-97 42 -153.5 122t-56.5 183q0 105 63.5 204t166.5 159.5t214 60.5q26 0 52 -3q99 -12 181 -64.5t129.5 -136t47.5 -180.5q0 -161 -121 -276.5
t-289 -115.5v40v40q137 0 233.5 93t96.5 219q0 104 -69 186t-177 108z" />
    <glyph glyph-name="uni306F" unicode="&#x306f;" horiz-adv-x="812" 
d="M118 792v-819h-90v819h90zM543 185q-51 15 -107 15q-68 0 -114 -23t-46 -48q0 -34 37.5 -63t96.5 -29t96.5 29t37.5 63zM612 645h170v-90h-168l7 -315q89 -40 174 -128l-29 -28l-29 -28q-57 59 -113 93v-20q0 -75 -64.5 -123.5t-149.5 -48.5t-149.5 48.5t-64.5 123.5
q0 41 23.5 72t61.5 47.5t77 24t78 7.5q54 0 105 -12l-7 287h-326v90h324l-4 158l40 1l40 1z" />
    <glyph glyph-name="uni3070" unicode="&#x3070;" horiz-adv-x="812" 
d="M711 832v-138h-67v138h67zM820 832v-138h-67v138h67zM118 792v-819h-90v819h90zM543 185q-51 15 -107 15q-68 0 -114 -23t-46 -48q0 -34 37.5 -63t96.5 -29t96.5 29t37.5 63zM612 645h170v-90h-168l7 -315q89 -40 174 -128l-29 -28l-29 -28q-57 59 -113 93v-20
q0 -75 -64.5 -123.5t-149.5 -48.5t-149.5 48.5t-64.5 123.5q0 41 23.5 72t61.5 47.5t77 24t78 7.5q54 0 105 -12l-7 287h-326v90h324l-4 158l40 1l40 1z" />
    <glyph glyph-name="uni3071" unicode="&#x3071;" horiz-adv-x="812" 
d="M645 777q0 42 31 72.5t74 30.5q41 0 71.5 -30.5t30.5 -72.5t-30.5 -73t-72.5 -31q-43 0 -73.5 30.5t-30.5 73.5zM748 830q-53 0 -53 -53q0 -54 54 -54q53 0 53 54q0 53 -54 53zM118 792v-819h-90v819h90zM543 185q-51 15 -107 15q-68 0 -114 -23t-46 -48q0 -34 37.5 -63
t96.5 -29t96.5 29t37.5 63zM612 645h170v-90h-168l7 -315q89 -40 174 -128l-29 -28l-29 -28q-57 59 -113 93v-20q0 -75 -64.5 -123.5t-149.5 -48.5t-149.5 48.5t-64.5 123.5q0 41 23.5 72t61.5 47.5t77 24t78 7.5q54 0 105 -12l-7 287h-326v90h324l-4 158l40 1l40 1z" />
    <glyph glyph-name="uni3072" unicode="&#x3072;" horiz-adv-x="931" 
d="M625 697l39 10l249 -319l-54 -84l-177 249q21 -227 19 -275q-4 -88 -49.5 -163t-119 -116.5t-155.5 -38.5q-59 2 -115.5 26.5t-99.5 65t-68 100t-22 127.5q4 104 57.5 225t130.5 190h-241v72h375v-72q-61 -31 -117.5 -109t-89.5 -162.5t-35 -147.5q-4 -98 64.5 -164.5
t164.5 -70.5q89 -4 162.5 67t77.5 174q1 18 -15 202.5t-20 203.5z" />
    <glyph glyph-name="uni3073" unicode="&#x3073;" horiz-adv-x="931" 
d="M757 869v-138h-67v138h67zM866 869v-138h-67v138h67zM625 697l39 10l249 -319l-54 -84l-177 249q21 -227 19 -275q-4 -88 -49.5 -163t-119 -116.5t-155.5 -38.5q-59 2 -115.5 26.5t-99.5 65t-68 100t-22 127.5q4 104 57.5 225t130.5 190h-241v72h375v-72
q-61 -31 -117.5 -109t-89.5 -162.5t-35 -147.5q-4 -98 64.5 -164.5t164.5 -70.5q89 -4 162.5 67t77.5 174q1 18 -15 202.5t-20 203.5z" />
    <glyph glyph-name="uni3074" unicode="&#x3074;" horiz-adv-x="931" 
d="M679 781q0 42 31 72.5t74 30.5q41 0 71.5 -30.5t30.5 -72.5t-30.5 -73t-72.5 -31q-43 0 -73.5 30.5t-30.5 73.5zM782 834q-53 0 -53 -53q0 -54 54 -54q53 0 53 54q0 53 -54 53zM625 697l39 10l249 -319l-54 -84l-177 249q21 -227 19 -275q-4 -88 -49.5 -163t-119 -116.5
t-155.5 -38.5q-59 2 -115.5 26.5t-99.5 65t-68 100t-22 127.5q4 104 57.5 225t130.5 190h-241v72h375v-72q-61 -31 -117.5 -109t-89.5 -162.5t-35 -147.5q-4 -98 64.5 -164.5t164.5 -70.5q89 -4 162.5 67t77.5 174q1 18 -15 202.5t-20 203.5z" />
    <glyph glyph-name="uni3075" unicode="&#x3075;" horiz-adv-x="940" 
d="M837 38l-159 312l69 45l174 -303zM12 83l194 276l82 -66l-213 -293zM612 680l-12 -38l-324 105l12 38l12 38l324 -105zM303 489l11 38q123 -36 201 -101q59 -50 89 -122.5t23 -145.5t-50 -125q-55 -64 -157 -54.5t-194 85.5l26 31l26 31q37 -32 77 -48.5t71.5 -18t55 5.5
t33.5 20q27 31 31 81.5t-17 105.5t-66 92q-64 55 -171 86z" />
    <glyph glyph-name="uni3076" unicode="&#x3076;" horiz-adv-x="940" 
d="M778 793v-138h-67v138h67zM887 793v-138h-67v138h67zM837 38l-159 312l69 45l174 -303zM12 83l194 276l82 -66l-213 -293zM612 680l-12 -38l-324 105l12 38l12 38l324 -105zM303 489l11 38q123 -36 201 -101q59 -50 89 -122.5t23 -145.5t-50 -125q-55 -64 -157 -54.5
t-194 85.5l26 31l26 31q37 -32 77 -48.5t71.5 -18t55 5.5t33.5 20q27 31 31 81.5t-17 105.5t-66 92q-64 55 -171 86z" />
    <glyph glyph-name="uni3077" unicode="&#x3077;" horiz-adv-x="940" 
d="M681 675q0 42 31 72.5t74 30.5q41 0 71.5 -30.5t30.5 -72.5t-30.5 -73t-72.5 -31q-43 0 -73.5 30.5t-30.5 73.5zM784 728q-53 0 -53 -53q0 -54 54 -54q53 0 53 54q0 53 -54 53zM837 38l-159 312l69 45l174 -303zM12 83l194 276l82 -66l-213 -293zM612 680l-12 -38
l-324 105l12 38l12 38l324 -105zM303 489l11 38q123 -36 201 -101q59 -50 89 -122.5t23 -145.5t-50 -125q-55 -64 -157 -54.5t-194 85.5l26 31l26 31q37 -32 77 -48.5t71.5 -18t55 5.5t33.5 20q27 31 31 81.5t-17 105.5t-66 92q-64 55 -171 86z" />
    <glyph glyph-name="uni3078" unicode="&#x3078;" horiz-adv-x="985" 
d="M15 454q103 79 349 280q251 -237 605 -632l-79 -85l-533 565l-270 -195z" />
    <glyph glyph-name="uni3079" unicode="&#x3079;" horiz-adv-x="985" 
d="M732 719v-138h-67v138h67zM841 719v-138h-67v138h67zM15 454q103 79 349 280q251 -237 605 -632l-79 -85l-533 565l-270 -195z" />
    <glyph glyph-name="uni307A" unicode="&#x307a;" horiz-adv-x="985" 
d="M687 633q0 42 31 72.5t74 30.5q41 0 71.5 -30.5t30.5 -72.5t-30.5 -73t-72.5 -31q-43 0 -73.5 30.5t-30.5 73.5zM790 686q-53 0 -53 -53q0 -54 54 -54q53 0 53 54q0 53 -54 53zM15 454q103 79 349 280q251 -237 605 -632l-79 -85l-533 565l-270 -195z" />
    <glyph glyph-name="uni307B" unicode="&#x307b;" horiz-adv-x="835" 
d="M23 811h87v-828h-87v828zM245 778h534v-87h-161v-150h176v-84h-176v-195q60 -31 105 -78.5t95 -117.5l-33 -23l-33 -23q-75 106 -134 148v-35q0 -75 -59.5 -125t-139.5 -50t-139.5 50t-59.5 125q0 54 33 97t86 63q64 25 165 7q17 -3 34 -7v164h-311v84h311v150h-293v87z
M538 209q-23 8 -48 12q-79 15 -123 -2q-31 -13 -49 -36t-18 -50q0 -37 33.5 -66t85.5 -29t85.5 29t33.5 66v76z" />
    <glyph glyph-name="uni307C" unicode="&#x307c;" horiz-adv-x="835" 
d="M761 830v-138h-67v138h67zM870 830v-138h-67v138h67zM23 811h87v-828h-87v828zM245 778h425v-87h-52v-150h176v-84h-176v-195q60 -31 105 -78.5t95 -117.5l-33 -23l-33 -23q-75 106 -134 148v-35q0 -75 -59.5 -125t-139.5 -50t-139.5 50t-59.5 125q0 54 33 97t86 63
q64 25 165 7q17 -3 34 -7v164h-311v84h311v150h-293v87zM538 209q-23 8 -48 12q-79 15 -123 -2q-31 -13 -49 -36t-18 -50q0 -37 33.5 -66t85.5 -29t85.5 29t33.5 66v76z" />
    <glyph glyph-name="uni307D" unicode="&#x307d;" horiz-adv-x="835" 
d="M703 788q0 42 31 72.5t74 30.5q41 0 71.5 -30.5t30.5 -72.5t-30.5 -73t-72.5 -31q-43 0 -73.5 30.5t-30.5 73.5zM806 841q-53 0 -53 -53q0 -54 54 -54q53 0 53 54q0 53 -54 53zM23 811h87v-828h-87v828zM245 778h434v-87h-61v-150h176v-84h-176v-195q60 -31 105 -78.5
t95 -117.5l-33 -23l-33 -23q-75 106 -134 148v-35q0 -75 -59.5 -125t-139.5 -50t-139.5 50t-59.5 125q0 54 33 97t86 63q64 25 165 7q17 -3 34 -7v164h-311v84h311v150h-293v87zM538 209q-23 8 -48 12q-79 15 -123 -2q-31 -13 -49 -36t-18 -50q0 -37 33.5 -66t85.5 -29
t85.5 29t33.5 66v76z" />
    <glyph glyph-name="uni307E" unicode="&#x307e;" horiz-adv-x="814" 
d="M377 181q-86 16 -145 16q-67 0 -95 -16.5t-28 -54.5q0 -27 37 -53.5t97 -26.5t97 26.5t37 53.5v55zM377 640h-363v75h363v96h40h40v-96h340v-75h-340v-135h325v-78h-325v-182q60 -14 172.5 -46.5t125.5 -35.5l-9 -39l-9 -39q-19 4 -123.5 34.5t-156.5 43.5v-37
q0 -72 -65 -116t-149 -44t-149 44t-65 116q0 42 17.5 73t48 47.5t64.5 23.5t73 7q62 0 145 -15v165h-345v78h345v135z" />
    <glyph glyph-name="uni307F" unicode="&#x307f;" horiz-adv-x="919" 
d="M302 385q-32 -4 -65 -15t-66.5 -30t-55 -50.5t-21.5 -69.5q0 -40 14.5 -60t38.5 -20q48 0 155 245zM153 811h396v-80q-13 -28 -49 -122t-54 -139q131 -8 275 -60q11 58 16 125l40 -3l40 -3q-6 -80 -20 -149q44 -18 102 -46l-17 -36l-17 -36q-49 23 -87 39
q-78 -277 -299 -360l-14 37l-14 37q187 71 253 316q-155 58 -291 60q-145 -331 -266 -331q-64 0 -98.5 48t-34.5 112q0 72 48.5 128t120.5 85.5t155 35.5q20 48 44 108t39.5 99.5t22.5 54.5h-291v80z" />
    <glyph glyph-name="uni3080" unicode="&#x3080;" horiz-adv-x="934" 
d="M835 540l-144 174l69 45l153 -168zM101 306q0 -63 25.5 -101.5t51.5 -38.5q17 0 37 20.5t31 55.5v128q-11 35 -31 55.5t-37 20.5q-26 0 -51.5 -38.5t-25.5 -101.5zM769 291l40 -3l-12 -164q-3 -51 -48 -97.5t-115 -45.5l-261 3q-51 1 -88.5 36.5t-38.5 100.5
q-2 -2 -11 -9t-13.5 -10t-12.5 -7.5t-15.5 -6.5t-15.5 -2q-72 0 -114.5 67t-42.5 153q0 84 42 144t115 60q38 0 68 -22v146h-207v89h207v100h40h40v-100h304v-89h-304v-499q0 -37 16 -54t31 -17l261 -3q36 0 59 24t24 43l12 166z" />
    <glyph glyph-name="uni3081" unicode="&#x3081;" horiz-adv-x="764" 
d="M476 748l70 -8l-49 -105q108 -31 177.5 -118.5t69.5 -199.5q0 -91 -47 -169.5t-127.5 -124t-173.5 -45.5v35v34q116 0 198 80.5t82 189.5q0 90 -58.5 161t-150.5 94l-226 -536l-12 -31l-32 14q-82 36 -130 105t-48 158q0 83 45 161.5t119 131.5l-55 164l28 10l28 10
l51 -151q79 41 161 41q16 0 33 -1zM258 541l54 -162l85 201q-70 0 -139 -39zM206 505q-54 -45 -86.5 -104.5t-32.5 -118.5q0 -120 107 -184l83 197z" />
    <glyph glyph-name="uni3082" unicode="&#x3082;" horiz-adv-x="827" 
d="M680 406q11 8 32 24t32 24l6 -8q61 -79 61 -176q0 -81 -40.5 -154t-111.5 -118t-154 -45q-57 0 -107.5 13t-93 40.5t-68 76.5t-26.5 114v134h-195v83h195v169h-174v80h174v165h80v-165h309v-80h-309v-169h333v-83h-333v-134q4 -164 215 -164q90 0 158 72.5t68 164.5
q0 70 -45 128z" />
    <glyph glyph-name="uni3083" unicode="&#x3083;" horiz-adv-x="679" 
d="M159 574l34 7l30 -150l137 31q1 0 5 1q18 4 32 7t45.5 8t57 3.5t54 -6.5t49 -21t30.5 -42q21 -55 27 -111q4 -19 1 -43t-9.5 -45.5t-26 -37.5t-48.5 -19l-154 -16l-4 34l-4 34l154 16q30 3 23 70q-5 47 -23 94q-6 14 -45 17.5t-80 -0.5t-70 -11l-137 -30l82 -401l-34 -7
l-34 -7l-81 400l-141 -32l-8 34l-7 34l142 31l-31 151zM419 480l-76 108l66 40l82 -102z" />
    <glyph glyph-name="uni3084" unicode="&#x3084;" horiz-adv-x="895" 
d="M32 448q-3 13 -10 39t-10 39l190 40l-40 204l88 20l40 -205l197 42q158 34 257 -3t126 -146q10 -34 6.5 -72t-15.5 -70t-40 -57t-67 -35h-1l-183 -36q-3 13 -8 39t-8 39l182 36q36 9 52.5 48t2.5 91q-13 53 -52 78.5t-98.5 25.5t-141.5 -17l-194 -42l104 -538l-88 -20
l-104 540zM541 670l-99 120l66 48l105 -132z" />
    <glyph glyph-name="uni3085" unicode="&#x3085;" horiz-adv-x="652" 
d="M408 137q61 12 100.5 59t39.5 107q0 57 -37.5 97t-100.5 50v-281q0 -17 -2 -32zM178 204l35 19q37 -67 114 -85q3 14 3 31v274q-72 -32 -153 -129.5t-81 -156.5v-90h-74v90v384h74v-198q48 68 111 119t123 66v83h40h40v-81q93 -12 155.5 -73t62.5 -154
q0 -102 -73.5 -174.5t-177.5 -75.5q-16 -23 -41 -46.5t-44 -36.5t-53 -36q-8 -4 -11 -6l-22 33l-22 33q77 51 101 73q-94 32 -142 117z" />
    <glyph glyph-name="uni3086" unicode="&#x3086;" horiz-adv-x="850" 
d="M523 193q108 11 157 63.5t52 143.5q2 63 -10 105t-39.5 65t-60.5 33t-84 14v-309q0 -59 -15 -115zM23 737h102v-253q65 87 151.5 150.5t167.5 77.5v106h94v-107q48 -5 87 -15t79 -33t66.5 -56t42 -87t13.5 -124q-4 -133 -92.5 -214.5t-248.5 -84.5q-60 -113 -168 -177
q-8 13 -24 40t-24 40q70 42 116 112q-61 21 -110 66t-80 102q14 7 42 22t42 22q24 -46 62.5 -79.5t85.5 -46.5q17 53 17 110v307q-61 -19 -136 -82t-129 -141t-54 -132v-129h-102v606z" />
    <glyph glyph-name="uni3087" unicode="&#x3087;" horiz-adv-x="632" 
d="M291 141l-26 4q-55 9 -90.5 0.5t-51.5 -20.5t-18 -25v-6q0 -27 26.5 -47.5t95.5 -19.5q36 1 50 15.5t14 45.5v53zM338 609h47v-139h217v-72h-217v-183q87 -26 235 -94l-20 -43l-20 -43q-124 58 -195 81v-28q0 -64 -42 -109t-114 -46q-98 -2 -158 43.5t-60 117.5
q0 10 1 19q6 41 32 70t63 41.5t82 17t90 -3.5l12 -2v373h47z" />
    <glyph glyph-name="uni3088" unicode="&#x3088;" horiz-adv-x="835" 
d="M381 203q-72 17 -100 16q-77 -7 -114.5 -28.5t-37.5 -43.5q0 -31 38 -60.5t100 -29.5q64 0 89 19t25 53v74zM495 289q167 -53 320 -147l-59 -97l-9 5q-116 72 -252 119v-40q0 -88 -65 -137t-163 -49q-100 0 -176 57t-76 147q0 39 17 70.5t42.5 51t61.5 34t68 20.5t67 10
q35 3 110 -13v515h114v-181h304v-104h-304v-261z" />
    <glyph glyph-name="uni3089" unicode="&#x3089;" horiz-adv-x="685" 
d="M111 833l435 -39v-102l-435 39v102zM21 236v426h93v-214q45 43 104 66.5t124 23.5q132 0 226 -87.5t94 -213.5q0 -124 -93 -201t-227 -77q-87 0 -161 40.5t-116 109.5q43 27 80 50q29 -48 81.5 -77t115.5 -29q97 0 161.5 51t64.5 133q0 84 -65.5 145.5t-160.5 61.5
t-160.5 -61.5t-65.5 -145.5z" />
    <glyph glyph-name="uni308A" unicode="&#x308a;" horiz-adv-x="685" 
d="M339 -46h-67v94h67q42 0 83 25.5t73.5 70t52.5 110t20 139.5t-20 136t-52.5 101.5t-73 61.5t-83.5 22t-83.5 -22t-73 -61.5t-52.5 -101.5t-20 -136h-47h-47v404h94v-105q92 116 229 116q94 0 168.5 -56t114.5 -151t40 -208q0 -114 -40 -214t-115 -162.5t-168 -62.5z" />
    <glyph glyph-name="uni308B" unicode="&#x308b;" horiz-adv-x="796" 
d="M144 785h516v-51l-338 -272q43 8 92 11t104.5 -3t102.5 -21t84.5 -45.5t52.5 -74.5q9 -27 13 -52q8 -52 -4.5 -98.5t-38.5 -80t-62 -60t-74 -42t-75 -20.5l-20 -3q-10 -1 -20 -1q-40 0 -76.5 3.5t-78 13t-71 25.5t-49.5 44t-20 64q0 25 8.5 50.5t30.5 46.5t53 23
q109 8 176 -49.5t79 -158.5q42 10 78.5 31t66 53.5t40 74.5t-0.5 95q-3 11 -7 23q-14 42 -57.5 67t-99 31.5t-119.5 2.5t-120 -15t-101 -26l-119 -96h-81l570 459h-435v51zM475 28q-10 81 -59.5 123t-137.5 37q-16 -1 -28 -21t-12 -45q0 -44 67 -69t170 -25z" />
    <glyph glyph-name="uni308C" unicode="&#x308c;" horiz-adv-x="970" 
d="M57 155l-41 28q19 28 84.5 135t118.5 169v76h-156v96h156v162h105v-230q76 64 206 128q89 45 166 2q12 -7 21 -18t14 -29t8.5 -32t5 -41t2 -40.5t0.5 -45.5v-42q1 -57 -7.5 -156.5t-5 -152.5t30.5 -76q10 -12 32.5 6t41 55.5t18.5 73.5l49 -8l49 -8q-6 -40 -30 -87.5
t-59.5 -87t-78.5 -48.5t-88 28q-14 13 -24.5 28t-17 36.5t-11 36.5t-5.5 45t-2 43.5t1.5 50.5t3.5 47t4 51q2 24 7 72q15 143 4 183q-16 59 -85 24q-88 -43 -139.5 -78.5t-110.5 -97.5v-487h-105v353q-8 -12 -49 -80t-72 -112z" />
    <glyph glyph-name="uni308D" unicode="&#x308d;" horiz-adv-x="817" 
d="M132 803h549v-84q-239 -181 -282 -215q26 3 51 3q137 0 239 -79t102 -198t-102 -198t-239 -79q-101 0 -185.5 44t-125.5 119l41 23l41 23q27 -50 89.5 -82.5t139.5 -32.5q106 0 176.5 56t70.5 127t-70.5 127t-176.5 56q-147 0 -274 -97q-51 -47 -90 -90l-38 28l-38 28
q128 106 192.5 159.5t174.5 139t190 138.5h-435v84z" />
    <glyph glyph-name="uni308E" unicode="&#x308e;" 
d="M320 244q-34 -55 -97 -171l-58 79q30 37 65 81q35 45 83 102l5 6l5 6v17q1 15 1 23v7h-126v76h131q3 47 4 62q3 55 6 79l86 -6q-16 -111 -21 -194q105 74 218 74q100 0 160 -67q55 -62 55 -160q0 -149 -128 -239q-51 -35 -179 -59q-13 35 -34 83q252 41 252 213
q0 147 -141 147q-105 0 -208 -87q-3 -79 -3 -176q0 -88 5 -185h-85q-1 78 -1 88z" />
    <glyph glyph-name="uni308F" unicode="&#x308f;" horiz-adv-x="907" 
d="M58 205l-48 36q17 22 51 68t51 67.5t44 53t52 55.5v56h-162v120h162v165h114v-253q54 34 123 66q56 27 117.5 33.5t116.5 -6.5t101 -48t70 -88q14 -29 23 -65q8 -34 10.5 -70.5t-3.5 -79.5t-20.5 -83.5t-43.5 -81t-69.5 -75t-101 -64t-135.5 -47.5l-14 58l-14 58
q60 15 108 37t79 46.5t52 54t30.5 57.5t12.5 58t0.5 54.5t-8.5 49t-14 43.5q-25 52 -93.5 69t-152.5 -18q-110 -52 -174 -104v-443h-114v322q-14 -18 -47.5 -63.5t-54.5 -73.5z" />
    <glyph glyph-name="uni3090" unicode="&#x3090;" 
d="M620 764l-1 -3q-9 -25 -21 -55q-11 -29 -26 -72q-14 -39 -20 -54q33 2 49 2q160 0 258 -107q78 -85 78 -206q0 -135 -96 -223q-89 -82 -230 -82q-120 0 -174 58q-33 36 -33 84q0 57 45 95q41 35 103 35q110 0 217 -130q77 76 77 169q0 97 -74 164q-72 66 -188 66
q-24 0 -62 -4q-4 -9 -20 -43q-63 -145 -152 -302q-81 -144 -161 -144q-41 0 -70 32q-37 40 -37 117q0 198 163 323q88 66 216 89q5 12 9 20q26 62 48 131h-270v85h310zM430 487q-103 -33 -165 -94q-102 -99 -102 -214q0 -68 36 -68q57 0 231 376zM705 62q-75 100 -153 100
q-66 0 -66 -53q0 -69 119 -69q47 0 89 18q3 1 11 4z" />
    <glyph glyph-name="uni3091" unicode="&#x3091;" 
d="M709 756l-2 -2q-15 -12 -169 -114l-37 -22l-19 -12l-19 -12q86 27 134 27q117 0 172 -64q40 -45 40 -106q0 -77 -60 -133q-74 -71 -224 -71q-60 0 -117 17q-83 -64 -132 -108q80 45 121 45q26 0 49 -24q6 -6 55 -84q15 -24 28 -24t35 26q89 110 146 110q105 0 256 -189
l-70 -63q-9 10 -28 35q-98 131 -163 131q-18 0 -39 -17q-6 -5 -93 -109q-23 -27 -54 -27q-28 0 -52 26q-7 8 -68 111q-20 34 -52 34q-94 0 -234 -158l-59 65q106 104 282 248q-64 40 -64 87q0 42 36 73q46 41 120 41q107 0 107 -70q0 -36 -75 -102q33 -6 56 -6q82 0 148 37
q63 34 63 98q0 110 -173 110q-103 0 -266 -71q-20 -9 -65 -32l-20 -10l-44 57q280 148 398 231h-294v77h401zM384 336q27 23 29 25q40 32 40 52q0 28 -40 28q-37 0 -60 -24q-13 -15 -13 -32q0 -19 23 -36q19 -14 21 -13z" />
    <glyph glyph-name="uni3092" unicode="&#x3092;" horiz-adv-x="823" 
d="M666 60h94q0 -44 -32 -77t-78 -30l-301 17q-115 0 -167.5 37.5t-52.5 93.5q0 88 94 162l-138 72q-18 10 -23 30t5 36l143 237h-193v90h248l66 108l80 -48l-36 -60h341v-90h-396l-147 -243l142 -74q72 38 168.5 70.5t178 55t102.5 30.5l36 -86q-41 -18 -172 -61t-197 -70
l82 -42l-44 -84l-145 77q-101 -56 -101 -110v-9q11 -28 127 -28h3l303 -17q2 0 6 3.5t4 9.5z" />
    <glyph glyph-name="uni3093" unicode="&#x3093;" horiz-adv-x="922" 
d="M357 823h75l-197 -475q61 58 123 82t111 1q28 -14 40.5 -54.5t13.5 -90.5t1.5 -99.5t10.5 -89.5t33 -54q13 -7 25 -10q46 -10 98.5 39.5t92 127t57.5 156.5l29 -7l29 -7q-10 -46 -29 -97.5t-49 -105t-65.5 -93.5t-81.5 -61t-94 -10q-21 5 -41 16q-42 24 -62.5 67
t-22.5 89.5t-0.5 91t-4 79t-26.5 46.5q-28 16 -109.5 -38.5t-144.5 -135.5l-79 -190h-75z" />
    <glyph glyph-name="uni309B" unicode="&#x309b;" 
d="M132 841v-138h-67v138h67zM241 841v-138h-67v138h67z" />
    <glyph glyph-name="uni309C" unicode="&#x309c;" 
d="M155 856q44 0 75 -34q27 -30 27 -69q0 -46 -34 -77q-30 -27 -69 -27q-47 0 -77 34q-27 30 -27 70q0 45 34 76q30 27 71 27zM153 806q-53 0 -53 -53q0 -54 54 -54q53 0 53 54q0 53 -54 53z" />
    <glyph glyph-name="uni309D" unicode="&#x309d;" 
d="M200 620l68 59q195 -110 381 -306q115 -122 158 -188l-78 -52q-36 26 -72 26q-40 0 -106 -32l-49 56q61 35 129 62q-172 213 -431 375z" />
    <glyph glyph-name="uni309E" unicode="&#x309e;" 
d="M174 595l68 58q195 -110 382 -306q114 -121 158 -188l-79 -52q-36 26 -71 26q-39 0 -106 -32l-50 56q58 34 129 63q-165 205 -431 375zM903 794v-149h-67v149h67zM794 794v-149h-67v149h67z" />
    <glyph glyph-name="uni30A1" unicode="&#x30a1;" horiz-adv-x="622" 
d="M17 555h586v-70l-240 -248h-78l240 248h-508v70zM37 0l200 401h74l-200 -401h-74z" />
    <glyph glyph-name="uni30A2" unicode="&#x30a2;" horiz-adv-x="826" 
d="M15 753h783v-120l-246 -276h-171l246 276h-612v120zM264 549h144l-225 -549h-144z" />
    <glyph glyph-name="uni30A3" unicode="&#x30a3;" horiz-adv-x="577" 
d="M12 186v83l553 308v-83q-32 -18 -97 -54t-97 -54v-408h-84v361q-53 -30 -137.5 -76.5t-137.5 -76.5z" />
    <glyph glyph-name="uni30A4" unicode="&#x30a4;" horiz-adv-x="826" 
d="M681 798h126l-306 -252v-546h-87v475l-285 -235h-126z" />
    <glyph glyph-name="uni30A5" unicode="&#x30a5;" horiz-adv-x="592" 
d="M105 428v-180h-88v180v61h58h166v105h86v-105h246v-61q-7 -215 -101.5 -325.5t-299.5 -130.5h-88q45 13 76.5 24t77 31.5t77.5 43t67 58t56.5 76.5t36 98.5t14.5 124.5h-384z" />
    <glyph glyph-name="uni30A6" unicode="&#x30a6;" horiz-adv-x="793" 
d="M339 811h96v-159h336v-90q-9 -161 -79 -299t-187 -219t-253 -76h-102q158 50 272 144t172.5 207t74.5 243h-561v-234h-93v324h324v159z" />
    <glyph glyph-name="uni30A7" unicode="&#x30a7;" horiz-adv-x="658" 
d="M65 533h530v-70h-235v-396h293v-66h-648v66h284v396h-224v70z" />
    <glyph glyph-name="uni30A8" unicode="&#x30a8;" horiz-adv-x="898" 
d="M113 694l668 40v-83l-296 -18v-500l386 18v-88l-852 -40v88l380 18v499l-286 -17v83z" />
    <glyph glyph-name="uni30A9" unicode="&#x30a9;" horiz-adv-x="670" 
d="M399 608h68v-146h186v-72h-186v-422h-68v401l-310 -329h-80l329 350h-303v72h364v146z" />
    <glyph glyph-name="uni30AA" unicode="&#x30aa;" horiz-adv-x="926" 
d="M543 830h129v-189h231v-123h-231v-561h-129v501l-369 -402h-159l424 462h-391v123h495v189z" />
    <glyph glyph-name="uni30AB" unicode="&#x30ab;" horiz-adv-x="793" 
d="M502 -40q-2 14 -6 40t-6 40l108 15q14 5 28.5 22t15.5 27l44 456h-345l-199 -560h-105l199 560h-216v80h245l63 177h105l-63 -177h361h44q-10 -93 -26.5 -272t-26.5 -272q-5 -42 -36 -75t-71 -44h-1h-1l-1 -1h-1h-1h-1h-1h-1h-1l-1 -1h-1h-1h-1h-1h-1l-1 -1h-1h-1h-1h-1
h-1h-1l-1 -1h-1h-1h-1h-1h-1h-1l-1 -1h-1h-1h-1h-1h-1h-1l-1 -1h-1h-1h-1h-1h-1h-1l-1 -1h-1h-1h-1h-1h-1h-1l-1 -1h-1h-1h-1h-1h-1h-1l-1 -1h-1h-1h-1h-1h-1h-1l-1 -1h-1h-1h-1h-1h-1h-1l-1 -1h-1h-1h-1h-1h-1h-1l-1 -1h-1h-1h-1h-1h-1h-1l-1 -1h-1h-1h-1h-1h-1h-1l-1 -1
h-1h-1h-1h-1h-1l-1 -1h-1h-1h-1h-1h-1h-1l-1 -1h-1h-1h-1h-1h-1h-1z" />
    <glyph glyph-name="uni30AC" unicode="&#x30ac;" horiz-adv-x="793" 
d="M619 835v-138h-67v138h67zM728 835v-138h-67v138h67zM502 -40q-2 14 -6 40t-6 40l108 15q14 5 28.5 22t15.5 27l44 456h-345l-199 -560h-105l199 560h-216v80h245l63 177h105l-63 -177h361h44q-10 -93 -26.5 -272t-26.5 -272q-5 -42 -36 -75t-71 -44h-1h-1l-1 -1h-1h-1
h-1h-1h-1h-1l-1 -1h-1h-1h-1h-1h-1l-1 -1h-1h-1h-1h-1h-1h-1l-1 -1h-1h-1h-1h-1h-1h-1l-1 -1h-1h-1h-1h-1h-1h-1l-1 -1h-1h-1h-1h-1h-1h-1l-1 -1h-1h-1h-1h-1h-1h-1l-1 -1h-1h-1h-1h-1h-1h-1l-1 -1h-1h-1h-1h-1h-1h-1l-1 -1h-1h-1h-1h-1h-1h-1l-1 -1h-1h-1h-1h-1h-1h-1
l-1 -1h-1h-1h-1h-1h-1h-1l-1 -1h-1h-1h-1h-1h-1h-1l-1 -1h-1h-1h-1h-1h-1l-1 -1h-1h-1h-1h-1h-1h-1l-1 -1h-1h-1h-1h-1h-1h-1z" />
    <glyph glyph-name="uni30AD" unicode="&#x30ad;" horiz-adv-x="878" 
d="M402 811h66v-198h327v-66h-327v-225h390v-72h-390v-291h-66v291h-387v72h387v225h-330v66h330v198z" />
    <glyph glyph-name="uni30AE" unicode="&#x30ae;" horiz-adv-x="878" 
d="M691 819v-138h-67v138h67zM800 819v-138h-67v138h67zM402 811h66v-198h327v-66h-327v-225h390v-72h-390v-291h-66v291h-387v72h387v225h-330v66h330v198z" />
    <glyph glyph-name="uni30AF" unicode="&#x30af;" horiz-adv-x="763" 
d="M318 824h108l-70 -114h385v-87q-11 -65 -24.5 -120.5t-37.5 -120t-55.5 -117t-79 -105.5t-106 -91.5t-139 -68t-176.5 -43.5h-102q62 30 107 53.5t106.5 61.5t106.5 74t95.5 88t86.5 107.5t67.5 128t48.5 153.5h-336l-183 -300h-108z" />
    <glyph glyph-name="uni30B0" unicode="&#x30b0;" horiz-adv-x="763" 
d="M318 824h108l-70 -114h166v-44h219v-43q-11 -65 -24.5 -120.5t-37.5 -120t-55.5 -117t-79 -105.5t-106 -91.5t-139 -68t-176.5 -43.5h-102q62 30 107 53.5t106.5 61.5t106.5 74t95.5 88t86.5 107.5t67.5 128t48.5 153.5h-336l-183 -300h-108zM729 833v-138h-67v138h67z
M620 833v-138h-67v138h67z" />
    <glyph glyph-name="uni30B1" unicode="&#x30b1;" horiz-adv-x="898" 
d="M252 814h87l-82 -180h619v-87h-209q-7 -68 -17 -123t-26 -114t-37 -104.5t-52.5 -88.5t-71.5 -73.5t-93.5 -52t-117.5 -29.5h-105q358 178 415 585h-345l-121 -264h-87z" />
    <glyph glyph-name="uni30B2" unicode="&#x30b2;" horiz-adv-x="898" 
d="M745 822v-138h-67v138h67zM854 822v-138h-67v138h67zM252 814h87l-82 -180h619v-87h-209q-7 -68 -17 -123t-26 -114t-37 -104.5t-52.5 -88.5t-71.5 -73.5t-93.5 -52t-117.5 -29.5h-105q358 178 415 585h-345l-121 -264h-87z" />
    <glyph glyph-name="uni30B3" unicode="&#x30b3;" horiz-adv-x="763" 
d="M637 710h104v-126v-575h-104v43h-618v112h618v420h-598v126h598z" />
    <glyph glyph-name="uni30B4" unicode="&#x30b4;" horiz-adv-x="763" 
d="M636 823v-138h-67v138h67zM745 823v-138h-67v138h67zM741 657v-73v-575h-104v43h-618v112h618v420h-598v126h504v-53h198z" />
    <glyph glyph-name="uni30B5" unicode="&#x30b5;" horiz-adv-x="934" 
d="M613 802q16 -1 47.5 -2t47.5 -1l-2 -192h200v-111h-202l-3 -211q0 -28 -6.5 -53.5t-17 -46.5t-28 -41.5t-33.5 -36t-41 -32.5t-43.5 -28t-48 -26t-47.5 -23t-48 -21.5t-44 -19.5q-7 14 -20 43t-20 43q14 7 48 21.5t57 25t56 27t55 33.5t43 38t32 46.5t12 52.5l2 209h-303
v-258h-90v258h-195v111h195v198h90v-198h305z" />
    <glyph glyph-name="uni30B6" unicode="&#x30b6;" horiz-adv-x="934" 
d="M838 814v-138h-67v138h67zM947 814v-138h-67v138h67zM613 802q16 -1 47.5 -2t47.5 -1l-2 -192h200v-111h-202l-3 -211q0 -28 -6.5 -53.5t-17 -46.5t-28 -41.5t-33.5 -36t-41 -32.5t-43.5 -28t-48 -26t-47.5 -23t-48 -21.5t-44 -19.5q-7 14 -20 43t-20 43q14 7 48 21.5
t57 25t56 27t55 33.5t43 38t32 46.5t12 52.5l2 209h-303v-258h-90v258h-195v111h195v198h90v-198h305z" />
    <glyph glyph-name="uni30B7" unicode="&#x30b7;" horiz-adv-x="811" 
d="M670 585h115v-10q0 -97 -89.5 -227t-217.5 -222q-94 -68 -202.5 -102t-193.5 -34h-10v115q86 3 178 33t171 88q104 76 176.5 181t72.5 168v10zM319 455l-296 74v105l296 -74v-105zM319 650l-296 74v105l296 -74v-105z" />
    <glyph glyph-name="uni30B8" unicode="&#x30b8;" horiz-adv-x="811" 
d="M664 776v-138h-67v138h67zM773 776v-138h-67v138h67zM670 585h115v-10q0 -97 -89.5 -227t-217.5 -222q-94 -68 -202.5 -102t-193.5 -34h-10v115q86 3 178 33t171 88q104 76 176.5 181t72.5 168v10zM319 455l-296 74v105l296 -74v-105zM319 650l-296 74v105l296 -74v-105z
" />
    <glyph glyph-name="uni30B9" unicode="&#x30b9;" horiz-adv-x="868" 
d="M74 749h646v-84l-247 -270l382 -321l-67 -74l-382 321l-284 -310h-104l598 654h-542v84z" />
    <glyph glyph-name="uni30BA" unicode="&#x30ba;" horiz-adv-x="868" 
d="M808 785v-138h-67v138h67zM917 785v-138h-67v138h67zM74 749h646v-84l-247 -270l382 -321l-67 -74l-382 321l-284 -310h-104l598 654h-542v84z" />
    <glyph glyph-name="uni30BB" unicode="&#x30bb;" horiz-adv-x="913" 
d="M432 2q-174 0 -174 136v352l-239 -18q-2 15 -4 47t-4 47q124 9 247 18v218h96v-211l540 39q-75 -189 -269 -377q-12 9 -37 29t-37 29q18 21 51 49.5t57 49.5t47.5 52.5t34.5 65.5l-387 -30v-360q0 -13 4 -21t8.5 -12t17.5 -6t20.5 -2.5t27.5 -0.5h386v-94h-386z" />
    <glyph glyph-name="uni30BC" unicode="&#x30bc;" horiz-adv-x="913" 
d="M767 817v-138h-67v138h67zM876 817v-138h-67v138h67zM432 2q-174 0 -174 136v352l-239 -18q-2 15 -4 47t-4 47q124 9 247 18v218h96v-211l540 39q-75 -189 -269 -377q-12 9 -37 29t-37 29q18 21 51 49.5t57 49.5t47.5 52.5t34.5 65.5l-387 -30v-360q0 -13 4 -21t8.5 -12
t17.5 -6t20.5 -2.5t27.5 -0.5h386v-94h-386z" />
    <glyph glyph-name="uni30BD" unicode="&#x30bd;" horiz-adv-x="742" 
d="M16 760h73l101 -312h-73zM685 727l34 -1q-4 -141 -74.5 -292.5t-174.5 -263.5q-37 -40 -78 -73t-85.5 -58.5t-70.5 -38t-68 -31.5l-14 31l-14 31q40 18 65.5 30.5t66 35.5t78 53t70.5 66q96 103 161.5 244.5t69.5 267.5z" />
    <glyph glyph-name="uni30BE" unicode="&#x30be;" horiz-adv-x="742" 
d="M608 796v-138h-67v138h67zM717 796v-138h-67v138h67zM707 613q-23 -119 -86.5 -234t-150.5 -209q-37 -40 -78 -73t-85.5 -58.5t-70.5 -38t-68 -31.5l-14 31l-14 31q40 18 65.5 30.5t66 35.5t78 53t70.5 66q75 81 133.5 188.5t82.5 214.5zM16 760h73l101 -312h-73z" />
    <glyph glyph-name="uni30BF" unicode="&#x30bf;" horiz-adv-x="762" 
d="M314 824h108l-70 -114h385v-87q-11 -65 -24.5 -120.5t-37.5 -120t-55.5 -117t-79 -105.5t-106 -91.5t-139 -68t-176.5 -43.5h-102q70 34 122 62t116.5 69t120.5 90.5t102 106.5l-180 105v90l225 -131q79 122 112 274h-336l-183 -300h-108z" />
    <glyph glyph-name="uni30C0" unicode="&#x30c0;" horiz-adv-x="762" 
d="M626 839v-138h-67v138h67zM735 839v-138h-67v138h67zM314 824h108l-70 -114h177v-30h208v-57q-11 -65 -24.5 -120.5t-37.5 -120t-55.5 -117t-79 -105.5t-106 -91.5t-139 -68t-176.5 -43.5h-102q70 34 122 62t116.5 69t120.5 90.5t102 106.5l-180 105v90l225 -131
q79 122 112 274h-336l-183 -300h-108z" />
    <glyph glyph-name="uni30C1" unicode="&#x30c1;" horiz-adv-x="910" 
d="M81 716l678 78v-90l-230 -26q-1 -117 -9 -199h365v-99h-378q-14 -80 -39 -144.5t-66.5 -121.5t-106.5 -95.5t-151 -55.5l-28 74q134 27 204 114t97 229h-402v99h415q7 78 9 188l-358 -41v90z" />
    <glyph glyph-name="uni30C2" unicode="&#x30c2;" horiz-adv-x="910" 
d="M747 831v-138h-67v138h67zM856 831v-138h-67v138h67zM81 716l574 63v-90l-126 -11q-1 -117 -9 -199h365v-99h-378q-14 -80 -39 -144.5t-66.5 -121.5t-106.5 -95.5t-151 -55.5l-28 74q134 27 204 114t97 229h-402v99h415q7 78 9 188l-358 -41v90z" />
    <glyph glyph-name="uni30C3" unicode="&#x30c3;" horiz-adv-x="613" 
d="M592 504q0 -108 -36 -206.5t-97 -170.5t-147 -115t-182 -43l2 91q156 0 259.5 128t103.5 322zM10 564h92l54 -218h-92zM194 564h92l54 -218h-92z" />
    <glyph glyph-name="uni30C4" unicode="&#x30c4;" horiz-adv-x="799" 
d="M15 759h105l99 -285h-105zM225 759h105l99 -285h-105zM656 732h116v-15q0 -108 -28.5 -217.5t-82.5 -206t-125.5 -172.5t-164 -119.5t-191.5 -43.5h-15v114h15q89 0 176.5 55.5t153 144.5t106 207t40.5 238v15z" />
    <glyph glyph-name="uni30C5" unicode="&#x30c5;" horiz-adv-x="799" 
d="M654 810v-138h-67v138h67zM763 810v-138h-67v138h67zM15 759h105l99 -285h-105zM225 759h105l99 -285h-105zM766 627q-11 -100 -44.5 -198t-88 -182.5t-122.5 -149.5t-154 -102t-177 -37h-15v114h15q109 0 212 78.5t172.5 207.5t86.5 275q20 0 58 -3t57 -3z" />
    <glyph glyph-name="uni30C6" unicode="&#x30c6;" horiz-adv-x="914" 
d="M139 774h628v-72h-628v72zM14 498h882v-72h-372q-1 -67 -14 -129t-42 -120.5t-71.5 -103t-107 -75t-143.5 -38.5l-15 -1q-1 13 -4 39.5t-4 39.5l15 2q80 8 140 42t95 87.5t52.5 117.5t18.5 139h-415h-15v72z" />
    <glyph glyph-name="uni30C7" unicode="&#x30c7;" horiz-adv-x="914" 
d="M874 843v-138h-67v138h67zM983 843v-138h-67v138h67zM139 774h628v-72h-628v72zM14 498h882v-72h-372q-1 -67 -14 -129t-42 -120.5t-71.5 -103t-107 -75t-143.5 -38.5l-15 -1q-1 13 -4 39.5t-4 39.5l15 2q80 8 140 42t95 87.5t52.5 117.5t18.5 139h-415h-15v72z" />
    <glyph glyph-name="uni30C8" unicode="&#x30c8;" horiz-adv-x="500" 
d="M24 806h84v-257l372 -172v-99l-372 172v-475h-84v831z" />
    <glyph glyph-name="uni30C9" unicode="&#x30c9;" horiz-adv-x="500" 
d="M355 774v-138h-67v138h67zM464 774v-138h-67v138h67zM24 806h84v-257l372 -172v-99l-372 172v-475h-84v831z" />
    <glyph glyph-name="uni30CA" unicode="&#x30ca;" horiz-adv-x="907" 
d="M481 803l60 -1l-5 -210h343v-126h-346l-1 -39q-2 -97 -49.5 -193.5t-118.5 -143.5l-213 -140l-33 50l-33 50l213 140q39 26 75.5 100.5t38.5 138.5l1 37h-398v126h401l5 212z" />
    <glyph glyph-name="uni30CB" unicode="&#x30cb;" horiz-adv-x="928" 
d="M16 173h892v-142h-892v142zM146 721h630v-128h-630v128z" />
    <glyph glyph-name="uni30CC" unicode="&#x30cc;" horiz-adv-x="832" 
d="M147 760h624v-99l-252 -274l288 -169l-39 -88l-314 185l-316 -344h-125l359 392l-165 97l39 88l192 -113l208 226h-499v99z" />
    <glyph glyph-name="uni30CD" unicode="&#x30cd;" horiz-adv-x="892" 
d="M615 599h-531v90h321v138h93v-138h300v-90l-269 -180l344 -237l-63 -63l-312 218v-383h-93v382l-267 -178h-123z" />
    <glyph glyph-name="uni30CE" unicode="&#x30ce;" horiz-adv-x="736" 
d="M615 789l99 -27q-28 -305 -189 -497.5t-420 -264.5h-90q86 40 159 87.5t146 117t128.5 151.5t99.5 193t67 240z" />
    <glyph glyph-name="uni30CF" unicode="&#x30cf;" horiz-adv-x="949" 
d="M579 706h100l258 -680h-100zM291 706h94q-13 -108 -38 -211.5t-64.5 -207.5t-100.5 -174.5t-135 -83.5h-34q39 44 73.5 100t57 104t46.5 119.5t36.5 115.5t33.5 124t31 114z" />
    <glyph glyph-name="uni30D0" unicode="&#x30d0;" horiz-adv-x="949" 
d="M819 781v-138h-67v138h67zM928 781v-138h-67v138h67zM579 706h100l258 -680h-100zM291 706h94q-13 -108 -38 -211.5t-64.5 -207.5t-100.5 -174.5t-135 -83.5h-34q39 44 73.5 100t57 104t46.5 119.5t36.5 115.5t33.5 124t31 114z" />
    <glyph glyph-name="uni30D1" unicode="&#x30d1;" horiz-adv-x="949" 
d="M728 679q0 42 31 72.5t74 30.5q41 0 71.5 -30.5t30.5 -72.5t-30.5 -73t-72.5 -31q-43 0 -73.5 30.5t-30.5 73.5zM831 732q-53 0 -53 -53q0 -54 54 -54q53 0 53 54q0 53 -54 53zM579 706h100l258 -680h-100zM291 706h94q-13 -108 -38 -211.5t-64.5 -207.5t-100.5 -174.5
t-135 -83.5h-34q39 44 73.5 100t57 104t46.5 119.5t36.5 115.5t33.5 124t31 114z" />
    <glyph glyph-name="uni30D2" unicode="&#x30d2;" horiz-adv-x="685" 
d="M665 40v-40h-523q-50 0 -85 35t-35 85v661h40h40v-272l503 116l7 -39l7 -39l-517 -120v-307q0 -16 12 -28t28 -12h523v-40z" />
    <glyph glyph-name="uni30D3" unicode="&#x30d3;" horiz-adv-x="685" 
d="M551 804v-138h-67v138h67zM660 804v-138h-67v138h67zM665 40v-40h-523q-50 0 -85 35t-35 85v661h40h40v-272l503 116l7 -39l7 -39l-517 -120v-307q0 -16 12 -28t28 -12h523v-40z" />
    <glyph glyph-name="uni30D4" unicode="&#x30d4;" horiz-adv-x="685" 
d="M451 764q0 42 31 72.5t74 30.5q41 0 71.5 -30.5t30.5 -72.5t-30.5 -73t-72.5 -31q-43 0 -73.5 30.5t-30.5 73.5zM554 817q-53 0 -53 -53q0 -54 54 -54q53 0 53 54q0 53 -54 53zM665 40v-40h-523q-50 0 -85 35t-35 85v661h40h40v-272l503 116l7 -39l7 -39l-517 -120v-307
q0 -16 12 -28t28 -12h523v-40z" />
    <glyph glyph-name="uni30D5" unicode="&#x30d5;" horiz-adv-x="802" 
d="M14 742h766v-142q-27 -114 -77.5 -214.5t-124 -184t-175.5 -136.5t-221 -65h-76q430 235 522 600h-614v142z" />
    <glyph glyph-name="uni30D6" unicode="&#x30d6;" horiz-adv-x="802" 
d="M653 160v-138h-67v138h67zM762 160v-138h-67v138h67zM14 742h766v-142q-27 -114 -77.5 -214.5t-124 -184t-175.5 -136.5t-221 -65h-76q430 235 522 600h-614v142z" />
    <glyph glyph-name="uni30D7" unicode="&#x30d7;" horiz-adv-x="802" 
d="M574 112q0 42 31 72.5t74 30.5q41 0 71.5 -30.5t30.5 -72.5t-30.5 -73t-72.5 -31q-43 0 -73.5 30.5t-30.5 73.5zM677 165q-53 0 -53 -53q0 -54 54 -54q53 0 53 54q0 53 -54 53zM14 742h766v-142q-27 -114 -77.5 -214.5t-124 -184t-175.5 -136.5t-221 -65h-76
q430 235 522 600h-614v142z" />
    <glyph glyph-name="uni30D8" unicode="&#x30d8;" horiz-adv-x="1000" 
d="M133 277q-19 17 -57 49t-57 49q166 194 332 389l57 -56l573 -601q-18 -17 -53 -53t-52 -54l-515 544z" />
    <glyph glyph-name="uni30D9" unicode="&#x30d9;" horiz-adv-x="1000" 
d="M735 724v-138h-67v138h67zM844 724v-138h-67v138h67zM133 277q-19 17 -57 49t-57 49q166 194 332 389l57 -56l573 -601q-18 -17 -53 -53t-52 -54l-515 544z" />
    <glyph glyph-name="uni30DA" unicode="&#x30da;" horiz-adv-x="1000" 
d="M628 639q0 42 31 72.5t74 30.5q41 0 71.5 -30.5t30.5 -72.5t-30.5 -73t-72.5 -31q-43 0 -73.5 30.5t-30.5 73.5zM731 692q-53 0 -53 -53q0 -54 54 -54q53 0 53 54q0 53 -54 53zM133 277q-19 17 -57 49t-57 49q166 194 332 389l57 -56l573 -601q-18 -17 -53 -53t-52 -54
l-515 544z" />
    <glyph glyph-name="uni30DB" unicode="&#x30db;" horiz-adv-x="931" 
d="M633 446h114l162 -381h-114zM294 446l-162 -381h-114l162 381h114zM389 818h141v-150h358v-150h-358v-558h-141v558h-344v150h344v150z" />
    <glyph glyph-name="uni30DC" unicode="&#x30dc;" horiz-adv-x="931" 
d="M769 840v-138h-67v138h67zM878 840v-138h-67v138h67zM633 446h114l162 -381h-114zM294 446l-162 -381h-114l162 381h114zM389 818h141v-150h358v-150h-358v-558h-141v558h-344v150h344v150z" />
    <glyph glyph-name="uni30DD" unicode="&#x30dd;" horiz-adv-x="931" 
d="M646 770q0 42 31 72.5t74 30.5q41 0 71.5 -30.5t30.5 -72.5t-30.5 -73t-72.5 -31q-43 0 -73.5 30.5t-30.5 73.5zM749 823q-53 0 -53 -53q0 -54 54 -54q53 0 53 54q0 53 -54 53zM633 446h114l162 -381h-114zM294 446l-162 -381h-114l162 381h114zM389 818h141v-150h133
q36 -41 94 -37.5t83 37.5h48v-150h-358v-558h-141v558h-344v150h344v150z" />
    <glyph glyph-name="uni30DE" unicode="&#x30de;" horiz-adv-x="889" 
d="M22 734h842v-156l-350 -340l169 -135l-105 -121l-461 367l105 121l189 -150l267 258h-656v156z" />
    <glyph glyph-name="uni30DF" unicode="&#x30df;" horiz-adv-x="670" 
d="M14 231l636 -147v-114l-636 147v114zM106 528l426 -87v-114l-426 87v114zM58 813l550 -96v-114l-550 96v114z" />
    <glyph glyph-name="uni30E0" unicode="&#x30e0;" horiz-adv-x="895" 
d="M380 795h117l-242 -653l424 33l-152 260l75 48l273 -447l-81 -57l-76 130l-698 -109l-3 123l117 9z" />
    <glyph glyph-name="uni30E1" unicode="&#x30e1;" horiz-adv-x="766" 
d="M460 430l280 -140v-102l-333 167l-267 -377h-130l301 425l-187 94v102l240 -121l224 316h130z" />
    <glyph glyph-name="uni30E2" unicode="&#x30e2;" horiz-adv-x="895" 
d="M75 759h711v-87h-399v-219h486v-87h-486v-249q0 -14 9.5 -23.5t23.5 -9.5h369v-90h-369q-51 0 -87 36t-36 87v249h-279v87h279v219h-222v87z" />
    <glyph glyph-name="uni30E3" unicode="&#x30e3;" horiz-adv-x="667" 
d="M442 177v83q84 12 107 144l-252 -27q25 -208 50 -415h-79q-18 151 -49 406q-32 -3 -97.5 -10t-98.5 -11l-9 83q33 3 98 10t97 11q-3 27 -9 78.5t-9 74.5h79l17 -145q106 12 357 39v-46q0 -27 -14 -71t-39 -90t-65 -79.5t-84 -34.5z" />
    <glyph glyph-name="uni30E4" unicode="&#x30e4;" horiz-adv-x="880" 
d="M573 253v90q56 11 109 79t66 136l-365 -37l70 -553h-105l-68 542l-254 -26l-10 90l253 26l-29 226h105l27 -216q36 4 216 22.5t276 27.5l-6 -55q-4 -35 -31.5 -93t-66 -116.5t-90 -100.5t-97.5 -42z" />
    <glyph glyph-name="uni30E5" unicode="&#x30e5;" horiz-adv-x="694" 
d="M113 538h436v-84l-98 -354h226v-94h-662v94h348l98 354h-348v84z" />
    <glyph glyph-name="uni30E6" unicode="&#x30e6;" horiz-adv-x="907" 
d="M142 716h592v-46q-29 -94 -85 -282.5t-84 -283.5h321h8v-70h-884v70h485l167 560h-512h-8v52z" />
    <glyph glyph-name="uni30E7" unicode="&#x30e7;" horiz-adv-x="580" 
d="M466 103v138h-444v84h444v136h-451v86h541v-556h-90v27h-454v85h454z" />
    <glyph glyph-name="uni30E8" unicode="&#x30e8;" horiz-adv-x="745" 
d="M627 108v237h-591v90h591v228h-605v86h696v-759h-91v38h-605v80h605z" />
    </font>
</defs>
</svg>
